×

¿Problemas para descargar con Mozilla, EDGE? Deshabilita la opción "Abrir vinculos en una pestaña nueva" tal como lo muestra ésta imagen.

IT (2017) REMUX 1080p Latino

1.580 vistas

Información de IT (2017) REMUX 1080p Latino

Datos de la película

  • Calidad: Full 1080p
  • Audio: Español Latino AC3 5.1 BLURAY - Ingles AC3 5.1 BLURAY
  • Subtitulos: Español Latino SRT- FORZADOS SRT
  • Resolución: 1920x1080p
  • Formato: MKV
  • Codec: H.264
  • Encoder: Dracarys
  • Mediainfo: Clic para Mostrar Datos Ver
  • Format                      : Matroska
    Format version              : Version 4
    File size                   : 26.8 GiB
    Duration                    : 2 h 14 min
    Overall bit rate mode       : Variable
    Overall bit rate            : 28.5 Mb/s
    Movie name                  : CinemaniaHDD.net
    Encoded date                : UTC 2019-09-08 22:04:56
    Writing application         : mkvmerge v35.0.0 ('All The Love In The World') 64-bit
    Writing library             : libebml v1.3.9 + libmatroska v1.5.2

    Video
    ID                          : 1
    Format                      : AVC
    Format/Info                 : Advanced Video Codec
    Format profile              : High@L4.1
    Format settings             : CABAC / 4 Ref Frames
    Format settings, CABAC      : Yes
    Format settings, ReFrames   : 4 frames
    Codec ID                    : V_MPEG4/ISO/AVC
    Duration                    : 2 h 14 min
    Bit rate mode               : Variable
    Bit rate                    : 23.8 Mb/s
    Maximum bit rate            : 30.0 Mb/s
    Width                       : 1 920 pixels
    Height                      : 1 080 pixels
    Display aspect ratio        : 16:9
    Frame rate mode             : Constant
    Frame rate                  : 23.976 (24000/1001) FPS
    Color space                 : YUV
    Chroma subsampling          : 4:2:0
    Bit depth                   : 8 bits
    Scan type                   : Progressive
    Bits/(Pixel*Frame)          : 0.478
    Stream size                 : 22.4 GiB (83%)
    Language                    : English
    Default                     : No
    Forced                      : No

    Audio #1
    ID                          : 2
    Format                      : AC-3
    Format/Info                 : Audio Coding 3
    Commercial name             : Dolby Digital
    Codec ID                    : A_AC3
    Duration                    : 2 h 14 min
    Bit rate mode               : Constant
    Bit rate                    : 448 kb/s
    Channel(s)                  : 6 channels
    Channel layout              : L R C LFE Ls Rs
    Sampling rate               : 48.0 kHz
    Frame rate                  : 31.250 FPS (1536 SPF)
    Bit depth                   : 16 bits
    Compression mode            : Lossy
    Stream size                 : 432 MiB (2%)
    Language                    : Spanish
    Service kind                : Complete Main
    Default                     : Yes
    Forced                      : Yes

    Audio #2
    ID                          : 3
    Format                      : AC-3
    Format/Info                 : Audio Coding 3
    Commercial name             : Dolby Digital
    Codec ID                    : A_AC3
    Duration                    : 2 h 14 min
    Bit rate mode               : Constant
    Bit rate                    : 448 kb/s
    Channel(s)                  : 6 channels
    Channel layout              : L R C LFE Ls Rs
    Sampling rate               : 48.0 kHz
    Frame rate                  : 31.250 FPS (1536 SPF)
    Bit depth                   : 16 bits
    Compression mode            : Lossy
    Stream size                 : 432 MiB (2%)
    Language                    : English
    Service kind                : Complete Main
    Default                     : No
    Forced                      : No

    Audio #3
    ID                          : 4
    Format                      : MLP FBA 16-ch
    Format/Info                 : Meridian Lossless Packing FBA with 16-channel presentation
    Commercial name             : Dolby TrueHD with Dolby Atmos
    Codec ID                    : A_TRUEHD
    Duration                    : 2 h 14 min
    Bit rate mode               : Variable
    Bit rate                    : 3 783 kb/s
    Maximum bit rate            : 7 701 kb/s
    Channel(s)                  : 8 channels
    Channel layout              : L R C LFE Ls Rs Lb Rb
    Sampling rate               : 48.0 kHz
    Frame rate                  : 1 200.000 FPS (40 SPF)
    Compression mode            : Lossless
    Stream size                 : 3.56 GiB (13%)
    Language                    : English
    Default                     : No
    Forced                      : No
    Number of dynamic objects   : 11
    Bed channel count           : 1 channel
    Bed channel configuration   : LFE

    Text #1
    ID                          : 5
    Format                      : PGS
    Muxing mode                 : zlib
    Codec ID                    : S_HDMV/PGS
    Codec ID/Info               : Picture based subtitle format used on BDs/HD-DVDs
    Duration                    : 2 h 10 min
    Bit rate                    : 625 b/s
    Count of elements           : 70
    Stream size                 : 597 KiB (0%)
    Language                    : Spanish
    Default                     : No
    Forced                      : No

    Text #2
    ID                          : 6
    Format                      : PGS
    Muxing mode                 : zlib
    Codec ID                    : S_HDMV/PGS
    Codec ID/Info               : Picture based subtitle format used on BDs/HD-DVDs
    Duration                    : 2 h 13 min
    Bit rate                    : 22.8 kb/s
    Count of elements           : 2813
    Stream size                 : 21.8 MiB (0%)
    Language                    : Spanish
    Default                     : No
    Forced                      : No

    Text #3
    ID                          : 7
    Format                      : UTF-8
    Codec ID                    : S_TEXT/UTF8
    Codec ID/Info               : UTF-8 Plain Text
    Duration                    : 2 h 10 min
    Bit rate                    : 0 b/s
    Count of elements           : 35
    Stream size                 : 781 Bytes (0%)
    Language                    : Spanish
    Default                     : Yes
    Forced                      : Yes

    Text #4
    ID                          : 8
    Format                      : UTF-8
    Codec ID                    : S_TEXT/UTF8
    Codec ID/Info               : UTF-8 Plain Text
    Duration                    : 2 h 13 min
    Bit rate                    : 38 b/s
    Count of elements           : 1406
    Stream size                 : 37.7 KiB (0%)
    Language                    : Spanish
    Default                     : No
    Forced                      : No

    Menu
    00:00:00.000                : en:Chapter 01
    00:09:23.646                : en:Chapter 02
    00:18:31.860                : en:Chapter 03
    00:28:26.162                : en:Chapter 04
    00:38:36.981                : en:Chapter 05
    00:48:19.438                : en:Chapter 06
    00:59:30.775                : en:Chapter 07
    01:08:52.795                : en:Chapter 08
    01:16:58.822                : en:Chapter 09
    01:26:52.957                : en:Chapter 10
    01:38:15.306                : en:Chapter 11
    01:48:40.972                : en:Chapter 12
    02:04:07.898                : en:Chapter 13
    02:09:05.654                : en:Chapter 14

  • Peso: 26.8 GiB

Sinopsis

Remake del clásico de Stephen King en el que un payaso aterroriza a los niños de un vecindario. En un pequeño pueblo de Maine, siete niños conocidos como el Club de los Perdedores se encuentran cara a cara con problemas de la vida, matones y un monstruo que toma la forma de un payaso llamado Pennywise.

Ficha técnica

Video trailer de la película

Enlaces de descarga

Rip de Bluray

Descargar IT (2017) REMUX 1080p Latino




Aportes de DPeliculasHDmega la pass es:dpeliculashdmega.org Aportes de CinemaniaHD la pass es:cinemaniahdd.com
Guardado en : Remux , Suspenso , Terror

Películas relacionadas

descargar IT (2017) REMUX 1080p Latino Full 1080p 1080p gratis, IT (2017) REMUX 1080p Latino Full 1080p mega 1 link, IT (2017) REMUX 1080p Latino Full 1080p pelicula completa, descargar IT (2017) REMUX 1080p Latino Full 1080p gratis en mega.

IT (2017) REMUX 1080p Latino pelicula full hd, IT (2017) REMUX 1080p Latino mega latino, IT (2017) REMUX 1080p Latino 4k latino, IT (2017) REMUX 1080p Latino pelicula completa, IT (2017) REMUX 1080p Latino descargar gratis, descargar IT (2017) REMUX 1080p Latino pelicula latino, IT (2017) REMUX 1080p Latino 1 link mega, IT (2017) REMUX 1080p Latino 1 link google drive, IT (2017) REMUX 1080p Latino hd 1080p latino.
Comentarios 0