×

¿Problemas para descargar con Mozilla, EDGE? Deshabilita la opción "Abrir vinculos en una pestaña nueva" tal como lo muestra ésta imagen.

It (2017) Full HD 1080p Latino

21.848 vistas

Información de It (2017) Full HD 1080p Latino

Datos de la película

  • Calidad: Full 1080p
  • Audio: Se especifica abajo de la Sinopsis
  • Subtitulos: Español Latino PGS - Ingles PGS
  • Resolución: 1920X1080p
  • Formato: MKV
  • Codec: H.264
  • Encoder: CinemaniaHD
  • Mediainfo: Clic para Mostrar Datos Ver
  • It (2017) Full HD 1080p Latino-CMHDD.mkv
    Format                      : Matroska
    Format version              : Version 4
    File size                   : 7.97 GiB
    Duration                    : 2 h 14 min
    Overall bit rate mode       : Variable
    Overall bit rate            : 8 471 kb/s
    Movie name                  : It (2017) CinemaniaHDD.Net
    Encoded date                : UTC 2019-12-02 03:38:46
    Writing application         : mkvmerge v38.0.0 ('The Silent Type') 64-bit
    Writing library             : libebml v1.3.9 + libmatroska v1.5.2
    Attachments                 : CINEMANIAHD.png

    Video
    ID                          : 1
    Format                      : AVC
    Format/Info                 : Advanced Video Codec
    Format profile              : High@L4.1
    Format settings             : CABAC / 4 Ref Frames
    Format settings, CABAC      : Yes
    Format settings, ReFrames   : 4 frames
    Codec ID                    : V_MPEG4/ISO/AVC
    Duration                    : 2 h 14 min
    Bit rate                    : 3 705 kb/s
    Width                       : 1 920 pixels
    Height                      : 1 080 pixels
    Display aspect ratio        : 16:9
    Frame rate mode             : Constant
    Frame rate                  : 23.976 (24000/1001) FPS
    Color space                 : YUV
    Chroma subsampling          : 4:2:0
    Bit depth                   : 8 bits
    Scan type                   : Progressive
    Bits/(Pixel*Frame)          : 0.075
    Stream size                 : 3.49 GiB (44%)
    Title                       : Full HD1080p [Bluray]
    Writing library             : x264 core 157 r2935 545de2f
    Encoding settings           : cabac=1 / ref=4 / deblock=1:0:0 / analyse=0x3:0x133 / me=tesa / subme=11 / psy=1 / psy_rd=1.00:0.00 / mixed_ref=1 / me_range=24 / chroma_me=1 / trellis=2 / 8x8dct=1 / cqm=0 / deadzone=21,11 / fast_pskip=0 / chroma_qp_offset=-2 / threads=34 / lookahead_threads=8 / sliced_threads=0 / nr=0 / decimate=1 / interlaced=0 / bluray_compat=0 / constrained_intra=0 / bframes=16 / b_pyramid=2 / b_adapt=2 / b_bias=0 / direct=3 / weightb=1 / open_gop=0 / weightp=2 / keyint=240 / keyint_min=24 / scenecut=40 / intra_refresh=0 / rc_lookahead=60 / rc=crf / mbtree=1 / crf=20.0 / qcomp=0.60 / qpmin=0 / qpmax=69 / qpstep=4 / vbv_maxrate=62500 / vbv_bufsize=78125 / crf_max=0.0 / nal_hrd=none / filler=0 / ip_ratio=1.40 / aq=1:1.00
    Default                     : Yes
    Forced                      : Yes
    Color range                 : Limited
    Color primaries             : BT.709
    Transfer characteristics    : BT.709
    Matrix coefficients         : BT.709

    Audio #1
    ID                          : 2
    Format                      : AC-3
    Format/Info                 : Audio Coding 3
    Commercial name             : Dolby Digital
    Codec ID                    : A_AC3
    Duration                    : 2 h 14 min
    Bit rate mode               : Constant
    Bit rate                    : 448 kb/s
    Channel(s)                  : 6 channels
    Channel layout              : L R C LFE Ls Rs
    Sampling rate               : 48.0 kHz
    Frame rate                  : 31.250 FPS (1536 SPF)
    Bit depth                   : 16 bits
    Compression mode            : Lossy
    Stream size                 : 432 MiB (5%)
    Title                       : AC3_5.1_Bluray_Esp
    Language                    : Spanish
    Service kind                : Complete Main
    Default                     : Yes
    Forced                      : Yes

    Audio #2
    ID                          : 3
    Format                      : MLP FBA 16-ch
    Format/Info                 : Meridian Lossless Packing FBA with 16-channel presentation
    Commercial name             : Dolby TrueHD with Dolby Atmos
    Codec ID                    : A_TRUEHD
    Duration                    : 2 h 14 min
    Bit rate mode               : Variable
    Bit rate                    : 3 783 kb/s
    Maximum bit rate            : 7 701 kb/s
    Channel(s)                  : 8 channels
    Channel layout              : L R C LFE Ls Rs Lb Rb
    Sampling rate               : 48.0 kHz
    Frame rate                  : 1 200.000 FPS (40 SPF)
    Compression mode            : Lossless
    Stream size                 : 3.56 GiB (45%)
    Title                       : THD_7.1_Bluray_Eng
    Language                    : English
    Default                     : No
    Forced                      : No
    Number of dynamic objects   : 11
    Bed channel count           : 1 channel
    Bed channel configuration   : LFE

    Audio #3
    ID                          : 4
    Format                      : AC-3
    Format/Info                 : Audio Coding 3
    Commercial name             : Dolby Digital
    Codec ID                    : A_AC3
    Duration                    : 2 h 14 min
    Bit rate mode               : Constant
    Bit rate                    : 448 kb/s
    Channel(s)                  : 6 channels
    Channel layout              : L R C LFE Ls Rs
    Sampling rate               : 48.0 kHz
    Frame rate                  : 31.250 FPS (1536 SPF)
    Bit depth                   : 16 bits
    Compression mode            : Lossy
    Stream size                 : 432 MiB (5%)
    Title                       : AC3_5.1_Bluray_Eng
    Language                    : English
    Service kind                : Complete Main
    Default                     : No
    Forced                      : No

    Text #1
    ID                          : 5
    Format                      : PGS
    Muxing mode                 : zlib
    Codec ID                    : S_HDMV/PGS
    Codec ID/Info               : Picture based subtitle format used on BDs/HD-DVDs
    Duration                    : 2 h 10 min
    Bit rate                    : 625 b/s
    Count of elements           : 70
    Stream size                 : 597 KiB (0%)
    Title                       : Sub_Forzados [PGS]
    Language                    : Spanish
    Default                     : Yes
    Forced                      : Yes

    Text #2
    ID                          : 6
    Format                      : PGS
    Muxing mode                 : zlib
    Codec ID                    : S_HDMV/PGS
    Codec ID/Info               : Picture based subtitle format used on BDs/HD-DVDs
    Duration                    : 2 h 13 min
    Bit rate                    : 22.8 kb/s
    Count of elements           : 2813
    Stream size                 : 21.8 MiB (0%)
    Title                       : Sub_Esp [PGS]
    Language                    : Spanish
    Default                     : No
    Forced                      : No

    Text #3
    ID                          : 7
    Format                      : PGS
    Muxing mode                 : zlib
    Codec ID                    : S_HDMV/PGS
    Codec ID/Info               : Picture based subtitle format used on BDs/HD-DVDs
    Duration                    : 2 h 14 min
    Bit rate                    : 31.9 kb/s
    Count of elements           : 3677
    Stream size                 : 30.7 MiB (0%)
    Title                       : Sub_Eng [PGS]
    Language                    : English
    Default                     : No
    Forced                      : No

    Text #4
    ID                          : 8
    Format                      : UTF-8
    Codec ID                    : S_TEXT/UTF8
    Codec ID/Info               : UTF-8 Plain Text
    Duration                    : 2 h 10 min
    Bit rate                    : 0 b/s
    Count of elements           : 35
    Stream size                 : 781 Bytes (0%)
    Title                       : Sub_Forzados
    Language                    : Spanish
    Default                     : No
    Forced                      : No

    Text #5
    ID                          : 9
    Format                      : UTF-8
    Codec ID                    : S_TEXT/UTF8
    Codec ID/Info               : UTF-8 Plain Text
    Duration                    : 2 h 13 min
    Bit rate                    : 38 b/s
    Count of elements           : 1406
    Stream size                 : 37.7 KiB (0%)
    Title                       : Sub_Esp
    Language                    : Spanish
    Default                     : No
    Forced                      : No

    Menu
    00:00:00.000                : :Chapter 1
    00:09:23.730                : :Chapter 2
    00:18:31.861                : :Chapter 3
    00:28:26.163                : :Chapter 4
    00:38:37.106                : :Chapter 5
    00:48:19.563                : :Chapter 6
    00:59:30.776                : :Chapter 7
    01:08:52.920                : :Chapter 8
    01:16:58.823                : :Chapter 9
    01:26:52.958                : :Chapter 10
    01:38:15.348                : :Chapter 11
    01:48:40.973                : :Chapter 12
    02:04:07.899                : :Chapter 13
    02:09:05.655                : :Chapter 14

  • Peso: 7.97 GiB

Sinopsis

Descargar It (2017) Full HD 1080p Latino. Remake del clásico de Stephen King en el que un payaso aterroriza a los niños de un vecindario. En un pequeño pueblo de Maine, siete niños conocidos como el Club de los Perdedores se encuentran cara a cara con problemas de la vida, matones y un monstruo que toma la forma de un payaso llamado Pennywise.

Audio Español Latino AC3 5.1 Bluray – Ingles TrueHD 7.1 + AC3 5.1 Bluray
Resubida en version Placebo, Enjoy!! 🙂

Ficha técnica

Video trailer de la película

Enlaces de descarga

Rip de Bluray

Descargar It (2017) Full HD 1080p Latino




Aportes de DPeliculasHDmega la pass es:dpeliculashdmega.org Aportes de CinemaniaHD la pass es:cinemaniahdd.com

Películas relacionadas

  • Ajin: Semi-Humano (2017) AMZN WEB-DL 1080p Latino

    Ajin: Semi-Humano (2017) AMZN WEB-DL 1080p Latino

    2017
    Ajin: Semi-Humano (2017) AMZN WEB-DL 1080p Latino

    1h 50m 2017

    Descargar Ajin: Semi-Humano (2017) AMZN WEB-DL 1080p Latino. En el manga original, aparece una persona...

    Director: Toru Yamamoto

    Género: Acción

    Actores: Yuki Yamada

  • Ajin: Semi-Humano (2017) REMUX 1080p Latino

    Ajin: Semi-Humano (2017) REMUX 1080p Latino

    2017
    Ajin: Semi-Humano (2017) REMUX 1080p Latino

    1h 50m 2017

    Descargar Ajin: Semi-Humano (2017) REMUX 1080p Latino. En el manga original, aparece una persona inmortal...

    Director: Toru Yamamoto

    Género: Acción

    Actores: Yuki Yamada

  • Zola (2020) PLACEBO Full HD 1080p Latino

    Zola (2020) PLACEBO Full HD 1080p Latino

    2020
    Zola (2020) PLACEBO Full HD 1080p Latino

    1h 26m 2020

    Descargar Zola (2020) PLACEBO Full HD 1080p Latino. Una camarera accede a acompañar a una bailarina...

    Director: Sheri Davani

    Género: Comedia

    Actores: Ts Madison

descargar It (2017) Full HD 1080p Latino Full 1080p 1080p gratis, It (2017) Full HD 1080p Latino Full 1080p mega 1 link, It (2017) Full HD 1080p Latino Full 1080p pelicula completa, descargar It (2017) Full HD 1080p Latino Full 1080p gratis en mega.

It (2017) Full HD 1080p Latino pelicula full hd, It (2017) Full HD 1080p Latino mega latino, It (2017) Full HD 1080p Latino 4k latino, It (2017) Full HD 1080p Latino pelicula completa, It (2017) Full HD 1080p Latino descargar gratis, descargar It (2017) Full HD 1080p Latino pelicula latino, It (2017) Full HD 1080p Latino 1 link mega, It (2017) Full HD 1080p Latino 1 link google drive, It (2017) Full HD 1080p Latino hd 1080p latino.
Comentarios 26
  • simonomega - 05 diciembre, 2019

    Gracias la estaba buscando para poder ver la segunda parte felicidades esta grandiosa la pagina

  • Aurora - 24 marzo, 2018

    Acabo de descargarla pero no se si lo estoy haciendo bien, no meti ninguna clave

  • Amador Constante - 23 enero, 2018

    Una de las mejores adaptaciones de la novela de Stephen King del 1986, muy buena película del género de terror para disfrutarla, con buena calidad de audio y vídeo.
    Una más que me llevo para mi colección.
    Gracias, dpeliculashdmega.org

  • crisg - 14 enero, 2018

    podrias subir el audio dts ingles por separado

  • Juan - 11 enero, 2018

    No permite descargar, cuando apreto el boton descargar abre una pagina de protector de link y pide que hacer click en le enlace pero la unica pagina que abre es una sobre mascotas y empieza el contador para poder acceder a los link

    • dpelis - 12 enero, 2018

      no aparece anuncio para hacer clic , si es asi, cambie ip para que muestre anucios

  • Carlos Alberto - 26 diciembre, 2017

    La llegaran a subir en 4k?

    • Dpelis2 - 26 diciembre, 2017

      posiblemnete

  • Aldair Jesus - 24 diciembre, 2017

    Cuando salga el audio latino del BD ¿le resubiran de nuevo o solo pondran el audio latino aparte?, pregunto porque tambien le faltan los capitulos y los subs que trae estan en castellano.

    • dpelis - 25 diciembre, 2017

      ambos, se resube y se agrega audio separado. los capitulos? el bluray es europeo, no hay bluray americano, hasta en enero

      • Aldair Jesús - 25 diciembre, 2017

        Ooh ya veo, eso explica todo. Si, los capítulos de salto de escenas.

  • Diego - 24 diciembre, 2017

    ¿Saben si saldrá la versión extendida que tiene como 15 minutos de más?

    • Dpelis2 - 24 diciembre, 2017

      lo mas probable que salga solo subtitulada

  • Andres - 24 diciembre, 2017

    Muchas gracias por el aporte.

  • Guido - 23 diciembre, 2017

    Hola por favor cual es la contraseña de esta pelicula?? por que intente con las 2 que estan en el post!! y ninguna funciona!! que puedo hacer??

    • Dpelis2 - 23 diciembre, 2017

      cinemaniahdd.net

  • zancudito - 23 diciembre, 2017

    solo 5gb tmr esta pelicula al menos eerea unos 15 ps XD

    • Dpelis2 - 23 diciembre, 2017

      No por tener mas peso significa que tendrá mas calidad!

  • Usuario Frecuente - 23 diciembre, 2017

    Es la tercera vez que me pasa que descargo una película y esta se encuentra sin audio, esta mal mi pc o mi reproductor?

    • Dpelis2 - 23 diciembre, 2017

      que reproductor Usas. puede ser que el que usas no Soporta Audios en Formato DTS! Te recomiendo usar el VLC Saludos

    • Aldair Jesus - 23 diciembre, 2017

      Descarga el K Lite Codec Pack standard y usal el Media Player Classic que igual lo incluye, con ese reproduce audio DTS, TrueHD y ATMOS.

  • cristian - 22 diciembre, 2017

    buena tarde el audio latino se escucha bn como no es del blu-ray o es lo mismo gracias por tan excelente aporte

  • TheBestDavid01 - 22 diciembre, 2017

    puedes explicar como eso dts editado de itunes? no es bluray?

    • dpelis - 22 diciembre, 2017

      no es bluray, aun no sale y no hay fecha. creo que pasara igual a king kong que demoro.

  • Jhefferson - 22 diciembre, 2017

    Muchas gracias la estaba esperando descargando…

  • cesar777 - 22 diciembre, 2017

    Aunque ya la vi en cine, pero la estaba esperando para verla en casa. Muchas gracias por el gran a porte. :D!