Isolation (2015) 1080p Latino

1.574 vistas
1 estrella2 estrellas3 estrellas4 estrellas5 estrellas (1 votos, promedio: 5,00 de 5)
Cargando…

Información de Isolation (2015) 1080p Latino

Datos de la película

  • Calidad: 1080p
  • Audio: Español Latino AC3 2.0 Capturado - Ingles AC3 5.1 BLURAY
  • Subtitulos: Español Latino SRT
  • Resolución: 1920x816
  • Formato: MKV
  • Codec: H.264
  • Encoder: Dpelis1
  • Mediainfo: Clic para Mostrar Datos Ver
  • Video
    ID                                       : 1
    Format                                   : AVC
    Format/Info                              : Advanced Video Codec
    Format profile                           : [email protected]
    Format settings, CABAC                   : Yes
    Format settings, RefFrames               : 4 frames
    Codec ID                                 : V_MPEG4/ISO/AVC
    Duration                                 : 1 h 33 min
    Bit rate                                 : 3 500 kb/s
    Width                                    : 1 920 pixels
    Height                                   : 816 pixels
    Display aspect ratio                     : 2.35:1
    Frame rate mode                          : Constant
    Frame rate                               : 24.000 FPS
    Color space                              : YUV
    Chroma subsampling                       : 4:2:0
    Bit depth                                : 8 bits
    Scan type                                : Progressive
    Bits/(Pixel*Frame)                       : 0.093
    Stream size                              : 2.24 GiB (83%)
    Writing library                          : x264 core 148 r2708 86b7198
    Encoding settings                        : cabac=1 / ref=3 / deblock=1:0:0 / analyse=0x3:0x113 / me=hex / subme=7 / psy=1 / psy_rd=1.00:0.00 / mixed_ref=1 / me_range=16 / chroma_me=1 / trellis=1 / 8x8dct=1 / cqm=0 / deadzone=21,11 / fast_pskip=1 / chroma_qp_offset=-2 / threads=12 / lookahead_threads=2 / sliced_threads=0 / nr=0 / decimate=1 / interlaced=0 / bluray_compat=0 / constrained_intra=0 / bframes=3 / b_pyramid=2 / b_adapt=1 / b_bias=0 / direct=1 / weightb=1 / open_gop=0 / weightp=2 / keyint=240 / keyint_min=24 / scenecut=40 / intra_refresh=0 / rc_lookahead=40 / rc=2pass / mbtree=1 / bitrate=3500 / ratetol=1.0 / qcomp=0.60 / qpmin=0 / qpmax=69 / qpstep=4 / cplxblur=20.0 / qblur=0.5 / vbv_maxrate=62500 / vbv_bufsize=78125 / nal_hrd=none / filler=0 / ip_ratio=1.40 / aq=1:1.00
    Default                                  : Yes
    Forced                                   : No
    Color range                              : Limited
    Color primaries                          : BT.709
    Transfer characteristics                 : BT.709
    Matrix coefficients                      : BT.709
    Statistics Tags Issue                    : mkvmerge v10.0.0 ('To Drown In You') 64bit 2017-10-02 00:41:45 / mkvmerge v10.0.0 ('To Drown In You') 64bit 2017-10-02 00:41:45 / UTC 2017-09-30T02:38:51Z
    FromStats_BitRate                        : 3498133
    FromStats_Duration                       : 01:33:54.834000000
    FromStats_FrameCount                     : 135236
    FromStats_StreamSize                     : 2463924946

    Audio #1
    ID                                       : 2
    Format                                   : AC-3
    Format/Info                              : Audio Coding 3
    Format settings, Endianness              : Big
    Codec ID                                 : A_AC3
    Duration                                 : 1 h 33 min
    Bit rate mode                            : Constant
    Bit rate                                 : 256 kb/s
    Channel(s)                               : 2 channels
    Channel positions                        : Front: L R
    Sampling rate                            : 44.1 kHz
    Frame rate                               : 28.711 FPS (1536 SPF)
    Bit depth                                : 16 bits
    Compression mode                         : Lossy
    Delay relative to video                  : -5 ms
    Stream size                              : 172 MiB (6%)
    Language                                 : Spanish
    Service kind                             : Complete Main
    Default                                  : No
    Forced                                   : No
    Statistics Tags Issue                    : mkvmerge v10.0.0 ('To Drown In You') 64bit 2017-10-02 00:41:45 / mkvmerge v10.0.0 ('To Drown In You') 64bit 2017-10-02 00:41:45 / UTC 2017-09-30T02:38:51Z
    FromStats_BitRate                        : 255999
    FromStats_Duration                       : 01:33:54.926000000
    FromStats_FrameCount                     : 161784
    FromStats_StreamSize                     : 180317624

    Audio #2
    ID                                       : 3
    Format                                   : AC-3
    Format/Info                              : Audio Coding 3
    Format settings, Endianness              : Big
    Codec ID                                 : A_AC3
    Duration                                 : 1 h 33 min
    Bit rate mode                            : Constant
    Bit rate                                 : 384 kb/s
    Channel(s)                               : 6 channels
    Channel positions                        : Front: L C R, Side: L R, LFE
    Sampling rate                            : 48.0 kHz
    Frame rate                               : 31.250 FPS (1536 SPF)
    Bit depth                                : 16 bits
    Compression mode                         : Lossy
    Delay relative to video                  : -5 ms
    Stream size                              : 258 MiB (9%)
    Language                                 : English
    Service kind                             : Complete Main
    Default                                  : Yes
    Forced                                   : No
    Statistics Tags Issue                    : mkvmerge v10.0.0 ('To Drown In You') 64bit 2017-10-02 00:41:45 / mkvmerge v10.0.0 ('To Drown In You') 64bit 2017-10-02 00:41:45 / UTC 2017-09-30T02:38:51Z
    FromStats_BitRate                        : 384000
    FromStats_Duration                       : 01:33:54.816000000
    FromStats_FrameCount                     : 176088
    FromStats_StreamSize                     : 270471168

    Text #1
    ID                                       : 4
    Format                                   : UTF-8
    Codec ID                                 : S_TEXT/UTF8
    Codec ID/Info                            : UTF-8 Plain Text
    Default                                  : Yes
    Forced                                   : No
    Statistics Tags Issue                    : mkvmerge v10.0.0 ('To Drown In You') 64bit 2017-10-02 00:41:45 / mkvmerge v10.0.0 ('To Drown In You') 64bit 2017-10-02 00:41:45 / UTC 2017-09-30T02:38:51Z
    FromStats_BitRate                        : 87
    FromStats_Duration                       : 00:00:10.100000000
    FromStats_FrameCount                     : 1
    FromStats_StreamSize                     : 110

    Text #2
    ID                                       : 5
    Format                                   : UTF-8
    Codec ID                                 : S_TEXT/UTF8
    Codec ID/Info                            : UTF-8 Plain Text
    Language                                 : Spanish
    Default                                  : No
    Forced                                   : No
    Statistics Tags Issue                    : mkvmerge v10.0.0 ('To Drown In You') 64bit 2017-10-02 00:41:45 / mkvmerge v10.0.0 ('To Drown In You') 64bit 2017-10-02 00:41:45 / UTC 2017-09-30T02:38:51Z
    FromStats_BitRate                        : 36
    FromStats_Duration                       : 01:31:39.189000000
    FromStats_FrameCount                     : 805
    FromStats_StreamSize                     : 24806

  • Peso: 2,75 GB

Sinopsis

Descargar gratis Isolation (2015) 1080p Latino. Insprada en hechos reales de una pareja que estaba de vacaciones en una isla remota de las Bahamas que son cazados por un grupo de piratas modernos.

Ficha técnica

  • Titulo original: Isolation
  • Fecha de lanzamiento: 31-10-2015 (United States of America)
  • Director: Shane Dax Taylor
  • Género: Acción, Crimen, Suspenso
  • Puntuación: 5.0 1 votos
  • Duración:
    1h 26m

Video trailer de la película

Enlaces de descarga

Rip de Bluray

Descargar Isolation (2015) 1080p Latino




Aportes de DPeliculasHDmega la pass es:dpeliculashdmega.org Aportes de CinemaniaHD la pass es:cinemaniahdd.com
Guardado en : Acción , Crimen , Suspenso

Películas relacionadas

  • Man On A Ledge (2012) Full (Open Matte) 1080P Latino

    2012
    Man On A Ledge (2012) Full (Open Matte) 1080P Latino

    5.0 1h 42m 2012

    Nick Cassidy (Sam Worthington), un antiguo agente de policía, se escapa de la cárcel y se dirige al...

    Director: Melissa Kalbfus

    Género: Acción

    Actores: William Sadler

  • Replicas (2018) Full 1080p Latino

    2018
    Replicas (2018) Full 1080p Latino

    5.0 1h 47m 2018

    Thriller de ciencia ficción que se centra en un neurocientífico que, después de sufrir un accidente...

    Director: Jeffrey Nachmanoff

    Género: Ciencia ficción

    Actores: Thomas Middleditch

  • Dragged Across Concrete (2018) WEB-DL Latino

    2019
    Dragged Across Concrete (2018) WEB-DL Latino

    0.0 2h 39m 2019

    Las películas de S. Craig Zahler se cuecen a fuego lento. Sin embargo, su carrera es fulgurante: ya...

    Director: Sam Harris

    Género: Acción

    Actores: Vivian Ng

Comentarios 0