Isle of the Dead (2016) WEB-DL 1080p Latino

1.167 vistas
1 estrella2 estrellas3 estrellas4 estrellas5 estrellas (1 votos, promedio: 5,00 de 5)
Cargando…

Información de Isle of the Dead (2016) WEB-DL 1080p Latino

Datos de la película

  • Calidad: WEBDL
  • Audio: Se especifica abajo de la Sinopsis
  • Subtitulos: No
  • Resolución: 1920x1080p
  • Formato: MKV
  • Codec: H.264
  • Encoder: Dracarys
  • Mediainfo: Clic para Mostrar Datos Ver
  • Format                                   : Matroska
    Format version                           : Version 4 / Version 2
    File size                                : 2.65 GiB
    Duration                                 : 1 h 27 min
    Overall bit rate                         : 4 341 kb/s
    Movie name                               : CinemaniaHDD.net
    Encoded date                             : UTC 2018-07-21 05:51:56 / UTC 2018-07-21T04:49:53Z
    Writing application                      : mkvmerge v15.0.0 ('Duel with the Devil') 64-bit
    Writing library                          : libebml v1.3.5 + libmatroska v1.4.5 / Lavf57.7.2

    Video
    ID                                       : 1
    Format                                   : AVC
    Format/Info                              : Advanced Video Codec
    Format profile                           : High@L4.1
    Format settings                          : CABAC / 4 Ref Frames
    Format settings, CABAC                   : Yes
    Format settings, RefFrames               : 4 frames
    Codec ID                                 : V_MPEG4/ISO/AVC
    Duration                                 : 1 h 27 min
    Bit rate                                 : 3 500 kb/s
    Width                                    : 1 920 pixels
    Height                                   : 1 080 pixels
    Display aspect ratio                     : 16:9
    Frame rate mode                          : Constant
    Frame rate                               : 23.976 (24000/1001) FPS
    Color space                              : YUV
    Chroma subsampling                       : 4:2:0
    Bit depth                                : 8 bits
    Scan type                                : Progressive
    Bits/(Pixel*Frame)                       : 0.070
    Stream size                              : 2.05 GiB (77%)
    Title                                    : Isle of the Dead (2016) WEB-DL 1080p Latino
    Writing library                          : x264 core 148 r2708 86b7198
    Encoding settings                        : cabac=1 / ref=4 / deblock=1:0:0 / analyse=0x3:0x113 / me=umh / subme=8 / psy=1 / psy_rd=1.00:0.00 / mixed_ref=1 / me_range=16 / chroma_me=1 / trellis=1 / 8x8dct=1 / cqm=0 / deadzone=21,11 / fast_pskip=1 / chroma_qp_offset=-2 / threads=34 / lookahead_threads=5 / sliced_threads=0 / nr=0 / decimate=1 / interlaced=0 / bluray_compat=0 / constrained_intra=0 / bframes=3 / b_pyramid=2 / b_adapt=2 / b_bias=0 / direct=3 / weightb=1 / open_gop=0 / weightp=2 / keyint=240 / keyint_min=24 / scenecut=40 / intra_refresh=0 / rc_lookahead=50 / rc=abr / mbtree=1 / bitrate=3500 / ratetol=1.0 / qcomp=0.60 / qpmin=0 / qpmax=69 / qpstep=4 / vbv_maxrate=62500 / vbv_bufsize=78125 / nal_hrd=none / filler=0 / ip_ratio=1.40 / aq=1:1.00
    Language                                 : English
    Default                                  : Yes
    Forced                                   : No
    Color range                              : Limited
    Color primaries                          : BT.709
    Transfer characteristics                 : BT.709
    Matrix coefficients                      : BT.709
    Statistics Tags Issue                    : mkvmerge v15.0.0 ('Duel with the Devil') 64-bit 2018-07-21 05:51:56 / mkvmerge v15.0.0 ('Duel with the Devil') 64-bit 2018-07-21 05:51:56 / UTC 2018-07-21T04:49:53Z
    FromStats_BitRate                        : 3443178
    FromStats_Duration                       : 01:27:31.288000000
    FromStats_FrameCount                     : 125905
    FromStats_StreamSize                     : 2260140312

    Audio #1
    ID                                       : 2
    Format                                   : AC-3
    Format/Info                              : Audio Coding 3
    Format settings, Endianness              : Big
    Codec ID                                 : A_AC3
    Duration                                 : 1 h 27 min
    Bit rate mode                            : Constant
    Bit rate                                 : 256 kb/s
    Channel(s)                               : 2 channels
    Channel positions                        : Front: L R
    Sampling rate                            : 48.0 kHz
    Frame rate                               : 31.250 FPS (1536 SPF)
    Bit depth                                : 16 bits
    Compression mode                         : Lossy
    Stream size                              : 160 MiB (6%)
    Language                                 : Spanish
    Service kind                             : Complete Main
    Default                                  : Yes
    Forced                                   : No
    Statistics Tags Issue                    : mkvmerge v15.0.0 ('Duel with the Devil') 64-bit 2018-07-21 05:51:56 / mkvmerge v15.0.0 ('Duel with the Devil') 64-bit 2018-07-21 05:51:56 / UTC 2018-07-21T04:49:53Z
    FromStats_BitRate                        : 256000
    FromStats_Duration                       : 01:27:31.296000000
    FromStats_FrameCount                     : 164103
    FromStats_StreamSize                     : 168041472

    Audio #2
    ID                                       : 3
    Format                                   : E-AC-3
    Format/Info                              : Enhanced Audio Coding 3
    Format settings, Endianness              : Big
    Codec ID                                 : A_EAC3
    Duration                                 : 1 h 27 min
    Bit rate mode                            : Constant
    Bit rate                                 : 640 kb/s
    Channel(s)                               : 6 channels
    Channel positions                        : Front: L C R, Side: L R, LFE
    Sampling rate                            : 48.0 kHz
    Frame rate                               : 187.500 FPS (256 SPF)
    Compression mode                         : Lossy
    Stream size                              : 401 MiB (15%)
    Language                                 : English
    Service kind                             : Complete Main
    Default                                  : No
    Forced                                   : No
    Statistics Tags Issue                    : mkvmerge v15.0.0 ('Duel with the Devil') 64-bit 2018-07-21 05:51:56 / mkvmerge v15.0.0 ('Duel with the Devil') 64-bit 2018-07-21 05:51:56 / UTC 2018-07-21T04:49:53Z
    FromStats_BitRate                        : 640000
    FromStats_Duration                       : 01:27:31.232000000
    FromStats_FrameCount                     : 164101
    FromStats_StreamSize                     : 420098560

  • Peso: 2.65 GiB

Sinopsis

Extraños atrapados en una isla aislada luchan por sobrevivir contra hordas de muertos.

 

 

Latino AC3 2.0  –  Ingles E-AC3 5.1

 

No hay subtitulos por el momento

Ficha técnica

  • Titulo original: Isle of the Dead
  • Fecha de lanzamiento: 02-12-2016 (United States of America)
  • Director: Nick Lyon
  • Género: Terror
  • Puntuación: 5.0 1 votos
  • Duración:
    1 h 27 min

Video trailer de la película

Enlaces de descarga

Rip de Bluray

Descargar Isle of the Dead (2016) WEB-DL 1080p Latino




Aportes de DPeliculasHDmega la pass es:dpeliculashdmega.org Aportes de CinemaniaHD la pass es:cinemaniahdd.com
Guardado en : Terror

Películas relacionadas

  • La Monja (2018) Web-DL 1080p Latino

    2018
    La Monja (2018) Web-DL 1080p Latino

    5.0 1h 36m 2018

    Descargar La Monja (2018) Web-DL 1080p Latino, Mega, Google Drive. Cuando una joven monja se suicida...

    Director: Jody Blose

    Género: Misterio

    Actores: Tudor Munteanu

  • La piel fria (2017) 1080p Latino

    2017
    La piel fria (2017) 1080p Latino

    0.0 1h 41m 2017

    En una isla perdida en medio del océano, dos hombres se defienden, noche tras noche, resguardados en...

    Director: Xavier Gens

    Género: Ciencia ficción

    Actores: Winslow Iwaki

  • Cam (2018) NF 1080p Latino

    2018
    Cam (2018) NF 1080p Latino

    0.0 1h 34m 2018

    Alice es una camgirl con un código inamovible, que le permite mantener una cierta distancia con los...

    Director: Rachel Penner

    Género: Suspense

    Actores: Samantha Robinson

  • Stephanie (2017) 1080p Latino

    2017
    Stephanie (2017) 1080p Latino

    5.0 1h 26m 2017

    Descargar Stephanie (2017) 1080p Latino, Mega, Google Drive. Stephanie está sola en casa. No sabe por...

    Director: Akiva Goldsman

    Género: Drama

    Actores: Shree Crooks

Comentarios 0