×

¿Problemas para descargar con Mozilla, EDGE? Deshabilita la opción "Abrir vinculos en una pestaña nueva" tal como lo muestra ésta imagen.

Island (2023) Primera Temporada AMZN WEB-DL 1080p Latino

212 vistas

Información de Island (2023) Primera Temporada AMZN WEB-DL 1080p Latino

Datos de la película

  • Calidad: 1080p
  • Audio: Español Latino AC3 2.0
  • Subtitulos: Español Latino SRT- FORZADOS SRT
  • Resolución: 1920x1080
  • Formato: MKV
  • Codec: H.264
  • Encoder: cinemaniahdd
  • Mediainfo: Clic para Mostrar Datos Ver
  • Island T01E01 AMZN WEB-DL 1080p Latino [CNMNHDD].mkv
    Format                      : Matroska
    Format version              : Version 4
    File size                   : 3.66 GiB
    Duration                    : 55 min 58 s
    Overall bit rate            : 9 359 kb/s
    Movie name                  : Island S01E01 - Episode 1 [1080p] - CinemaniaHDD.Net
    Encoded date                : UTC 2023-07-03 03:12:53
    Writing application         : mkvmerge v56.1.0 ('My Friend') 64-bit
    Writing library             : libebml v1.4.2 + libmatroska v1.6.4

    Video
    ID                          : 1
    Format                      : AVC
    Format/Info                 : Advanced Video Codec
    Format profile              : High@L4
    Format settings             : CABAC / 4 Ref Frames
    Format settings, CABAC      : Yes
    Format settings, Reference  : 4 frames
    Codec ID                    : V_MPEG4/ISO/AVC
    Duration                    : 55 min 58 s
    Bit rate mode               : Constant
    Bit rate                    : 8 524 kb/s
    Nominal bit rate            : 10 000 kb/s
    Width                       : 1 920 pixels
    Height                      : 1 080 pixels
    Display aspect ratio        : 16:9
    Frame rate mode             : Constant
    Frame rate                  : 23.976 (24000/1001) FPS
    Color space                 : YUV
    Chroma subsampling          : 4:2:0
    Bit depth                   : 8 bits
    Scan type                   : Progressive
    Bits/(Pixel*Frame)          : 0.171
    Stream size                 : 3.33 GiB (91%)
    Title                       : CinemaniaHDD
    Default                     : Yes
    Forced                      : No
    Color range                 : Limited
    Color primaries             : BT.709
    Transfer characteristics    : BT.709
    Matrix coefficients         : BT.709

    Audio #1
    ID                          : 2
    Format                      : AC-3
    Format/Info                 : Audio Coding 3
    Commercial name             : Dolby Digital
    Codec ID                    : A_AC3
    Duration                    : 55 min 58 s
    Bit rate mode               : Constant
    Bit rate                    : 384 kb/s
    Channel(s)                  : 2 channels
    Channel layout              : L R
    Sampling rate               : 48.0 kHz
    Frame rate                  : 31.250 FPS (1536 SPF)
    Compression mode            : Lossy
    Stream size                 : 154 MiB (4%)
    Title                       : Español Latino [CinemaniaHDD]
    Language                    : Spanish
    Service kind                : Complete Main
    Default                     : Yes
    Forced                      : No

    Audio #2
    ID                          : 3
    Format                      : E-AC-3
    Format/Info                 : Enhanced AC-3
    Commercial name             : Dolby Digital Plus
    Codec ID                    : A_EAC3
    Duration                    : 55 min 58 s
    Bit rate mode               : Constant
    Bit rate                    : 224 kb/s
    Channel(s)                  : 2 channels
    Channel layout              : L R
    Sampling rate               : 48.0 kHz
    Frame rate                  : 31.250 FPS (1536 SPF)
    Compression mode            : Lossy
    Stream size                 : 89.7 MiB (2%)
    Title                       : Español latino / E-AC3 [CinemaniaHDD]
    Language                    : Spanish
    Service kind                : Complete Main
    Default                     : No
    Forced                      : No

    Audio #3
    ID                          : 4
    Format                      : E-AC-3
    Format/Info                 : Enhanced AC-3
    Commercial name             : Dolby Digital Plus
    Codec ID                    : A_EAC3
    Duration                    : 55 min 58 s
    Bit rate mode               : Constant
    Bit rate                    : 224 kb/s
    Channel(s)                  : 2 channels
    Channel layout              : L R
    Sampling rate               : 48.0 kHz
    Frame rate                  : 31.250 FPS (1536 SPF)
    Compression mode            : Lossy
    Stream size                 : 89.7 MiB (2%)
    Title                       : Coreano [CinemaniaHDD]
    Language                    : Korean
    Service kind                : Complete Main
    Default                     : No
    Forced                      : No

    Text #1
    ID                          : 5
    Format                      : UTF-8
    Codec ID                    : S_TEXT/UTF8
    Codec ID/Info               : UTF-8 Plain Text
    Duration                    : 54 min 7 s
    Bit rate                    : 0 b/s
    Count of elements           : 8
    Stream size                 : 227 Bytes (0%)
    Title                       : Forzados [CinemaniaHDD]
    Language                    : Spanish
    Default                     : Yes
    Forced                      : Yes

    Text #2
    ID                          : 6
    Format                      : UTF-8
    Codec ID                    : S_TEXT/UTF8
    Codec ID/Info               : UTF-8 Plain Text
    Duration                    : 54 min 7 s
    Bit rate                    : 48 b/s
    Count of elements           : 604
    Stream size                 : 19.2 KiB (0%)
    Title                       : Español Latino [CinemaniaHDD]
    Language                    : Spanish
    Default                     : No
    Forced                      : No

    Text #3
    ID                          : 7
    Format                      : UTF-8
    Codec ID                    : S_TEXT/UTF8
    Codec ID/Info               : UTF-8 Plain Text
    Duration                    : 53 min 33 s
    Bit rate                    : 49 b/s
    Count of elements           : 601
    Stream size                 : 19.6 KiB (0%)
    Title                       : Inglés [CinemaniaHDD]
    Language                    : English
    Default                     : No
    Forced                      : No

    Menu
    00:00:00.000                : 1. Studio Logo
    00:00:27.000                : Scene 2
    00:05:30.000                : 3. Title Sequence
    00:05:52.000                : Scene 4
    00:11:43.000                : Scene 5
    00:17:06.000                : Scene 6
    00:22:53.000                : Scene 7
    00:27:41.000                : Scene 8
    00:27:43.000                : Scene 9
    00:34:16.000                : Scene 10
    00:40:04.000                : Scene 11
    00:46:42.000                : Scene 12
    00:51:30.000                : Scene 13
    00:54:25.000                : 14. End Credits

     

  • Peso: 3.66 GiB Aprox ---- 40 GiB in 12 Chapters.

Sinopsis

El mal dio su primer paso para destruir el mundo. En la misteriosa isla de Jeju se reúnen la puerta de entrada al mal, Van, mezcla de humano y monstruo; Mi-hi Won, en el centro del destino y Johan, que ejerce el poder de Dios. Una extraña pero cautivadora fantasía de exorcismo llena de acción en la que luchan contra el mal, deben salvar el mundo y desafían sus propios destinos desafortunados.

Ficha técnica

Video trailer de la película

Enlaces de descarga

Rip de Bluray

Descargar Island (2023) Primera Temporada AMZN WEB-DL 1080p Latino




Aportes de DPeliculasHDmega la pass es:dpeliculashdmega.org Aportes de CinemaniaHD la pass es:cinemaniahdd.com Aportes recientes:cinemaniahdd.net

Películas relacionadas

descargar Island (2023) Primera Temporada AMZN WEB-DL 1080p Latino 1080p 1080p gratis, Island (2023) Primera Temporada AMZN WEB-DL 1080p Latino 1080p mega 1 link, Island (2023) Primera Temporada AMZN WEB-DL 1080p Latino 1080p serie completa, descargar Island (2023) Primera Temporada AMZN WEB-DL 1080p Latino 1080p gratis en mega.

Island (2023) Primera Temporada AMZN WEB-DL 1080p Latino pelicula full hd, Island (2023) Primera Temporada AMZN WEB-DL 1080p Latino mega latino, Island (2023) Primera Temporada AMZN WEB-DL 1080p Latino 4k latino, Island (2023) Primera Temporada AMZN WEB-DL 1080p Latino pelicula completa, Island (2023) Primera Temporada AMZN WEB-DL 1080p Latino descargar gratis, descargar Island (2023) Primera Temporada AMZN WEB-DL 1080p Latino pelicula latino, Island (2023) Primera Temporada AMZN WEB-DL 1080p Latino 1 link mega, Island (2023) Primera Temporada AMZN WEB-DL 1080p Latino 1 link google drive, Island (2023) Primera Temporada AMZN WEB-DL 1080p Latino hd 1080p latino.
Comentarios 0