Isla de perros (2018) Full 1080p Latino

1.248 vistas
1 estrella2 estrellas3 estrellas4 estrellas5 estrellas (1 votos, promedio: 5,00 de 5)
Cargando…

Información de Isla de perros (2018) Full 1080p Latino

Datos de la película

  • Calidad: Full 1080p
  • Audio: Español Latino AC3 5.1 BLURAY - Ingles DTS 5.1 BLURAY
  • Subtitulos: Español Latino PGS - Ingles PGS
  • Resolución: 1920x1080p
  • Formato: MKV
  • Codec: H.264
  • Encoder: Dracarys
  • Mediainfo: Clic para Mostrar Datos Ver
  • Format                                   : Matroska
    Format version                           : Version 4 / Version 2
    File size                                : 3.40 GiB
    Duration                                 : 1 h 41 min
    Overall bit rate                         : 4 818 kb/s
    Movie name                               : CinemaniaHDD.net
    Encoded date                             : UTC 2018-07-14 05:03:33 / UTC 2018-07-13T03:09:59Z
    Writing application                      : mkvmerge v15.0.0 ('Duel with the Devil') 64-bit
    Writing library                          : libebml v1.3.5 + libmatroska v1.4.5 / Lavf57.7.2

    Video
    ID                                       : 1
    Format                                   : AVC
    Format/Info                              : Advanced Video Codec
    Format profile                           : High@L4.1
    Format settings                          : CABAC / 4 Ref Frames
    Format settings, CABAC                   : Yes
    Format settings, RefFrames               : 4 frames
    Codec ID                                 : V_MPEG4/ISO/AVC
    Duration                                 : 1 h 41 min
    Bit rate                                 : 2 765 kb/s
    Width                                    : 1 920 pixels
    Height                                   : 1 080 pixels
    Display aspect ratio                     : 16:9
    Frame rate mode                          : Constant
    Frame rate                               : 23.976 (24000/1001) FPS
    Color space                              : YUV
    Chroma subsampling                       : 4:2:0
    Bit depth                                : 8 bits
    Scan type                                : Progressive
    Bits/(Pixel*Frame)                       : 0.056
    Stream size                              : 1.95 GiB (57%)
    Title                                    : Isla de perros (2018) Full 1080p Latino
    Writing library                          : x264 core 148 r2708 86b7198
    Encoding settings                        : cabac=1 / ref=4 / deblock=1:0:0 / analyse=0x3:0x133 / me=esa / subme=10 / psy=1 / psy_rd=1.00:0.00 / mixed_ref=1 / me_range=24 / chroma_me=1 / trellis=2 / 8x8dct=1 / cqm=0 / deadzone=21,11 / fast_pskip=1 / chroma_qp_offset=-2 / threads=34 / lookahead_threads=5 / sliced_threads=0 / nr=0 / decimate=1 / interlaced=0 / bluray_compat=0 / constrained_intra=0 / bframes=8 / b_pyramid=2 / b_adapt=2 / b_bias=0 / direct=3 / weightb=1 / open_gop=0 / weightp=2 / keyint=240 / keyint_min=24 / scenecut=40 / intra_refresh=0 / rc_lookahead=60 / rc=crf / mbtree=1 / crf=20.0 / qcomp=0.60 / qpmin=0 / qpmax=69 / qpstep=4 / vbv_maxrate=62500 / vbv_bufsize=78125 / crf_max=0.0 / nal_hrd=none / filler=0 / ip_ratio=1.40 / aq=1:1.00
    Language                                 : English
    Default                                  : Yes
    Forced                                   : No
    Color range                              : Limited
    Color primaries                          : BT.709
    Transfer characteristics                 : BT.709
    Matrix coefficients                      : BT.709
    Statistics Tags Issue                    : mkvmerge v15.0.0 ('Duel with the Devil') 64-bit 2018-07-14 05:03:33 / mkvmerge v15.0.0 ('Duel with the Devil') 64-bit 2018-07-14 05:03:33 / UTC 2018-07-13T03:09:59Z
    FromStats_BitRate                        : 2844223
    FromStats_Duration                       : 01:41:10.148000000
    FromStats_FrameCount                     : 145538
    FromStats_StreamSize                     : 2158107518

    Audio #1
    ID                                       : 2
    Format                                   : AC-3
    Format/Info                              : Audio Coding 3
    Format settings, Endianness              : Big
    Codec ID                                 : A_AC3
    Duration                                 : 1 h 41 min
    Bit rate mode                            : Constant
    Bit rate                                 : 448 kb/s
    Channel(s)                               : 6 channels
    Channel positions                        : Front: L C R, Side: L R, LFE
    Sampling rate                            : 48.0 kHz
    Frame rate                               : 31.250 FPS (1536 SPF)
    Bit depth                                : 16 bits
    Compression mode                         : Lossy
    Stream size                              : 324 MiB (9%)
    Language                                 : Spanish
    Service kind                             : Complete Main
    Default                                  : Yes
    Forced                                   : No
    Statistics Tags Issue                    : mkvmerge v15.0.0 ('Duel with the Devil') 64-bit 2018-07-14 05:03:33 / mkvmerge v15.0.0 ('Duel with the Devil') 64-bit 2018-07-14 05:03:33 / UTC 2018-07-13T03:09:59Z
    FromStats_BitRate                        : 448000
    FromStats_Duration                       : 01:41:10.208000000
    FromStats_FrameCount                     : 189694
    FromStats_StreamSize                     : 339931648

    Audio #2
    ID                                       : 3
    Format                                   : DTS
    Format/Info                              : Digital Theater Systems
    Mode                                     : 16
    Format settings, Endianness              : Big
    Codec ID                                 : A_DTS
    Duration                                 : 1 h 41 min
    Bit rate mode                            : Constant
    Bit rate                                 : 1 509 kb/s
    Channel(s)                               : 6 channels
    Channel positions                        : Front: L C R, Side: L R, LFE
    Sampling rate                            : 48.0 kHz
    Frame rate                               : 93.750 FPS (512 SPF)
    Bit depth                                : 24 bits
    Compression mode                         : Lossy
    Stream size                              : 1.07 GiB (31%)
    Language                                 : English
    Default                                  : No
    Forced                                   : No
    Statistics Tags Issue                    : mkvmerge v15.0.0 ('Duel with the Devil') 64-bit 2018-07-14 05:03:33 / mkvmerge v15.0.0 ('Duel with the Devil') 64-bit 2018-07-14 05:03:33 / UTC 2018-07-13T03:09:59Z
    FromStats_BitRate                        : 1509000
    FromStats_Duration                       : 01:41:10.144000000
    FromStats_FrameCount                     : 569076
    FromStats_StreamSize                     : 1144980912

    Text #1
    ID                                       : 4
    Format                                   : PGS
    Muxing mode                              : zlib
    Codec ID                                 : S_HDMV/PGS
    Codec ID/Info                            : Picture based subtitle format used on BDs/HD-DVDs
    Language                                 : English
    Default                                  : No
    Forced                                   : No
    Statistics Tags Issue                    : mkvmerge v15.0.0 ('Duel with the Devil') 64-bit 2018-07-14 05:03:33 / mkvmerge v15.0.0 ('Duel with the Devil') 64-bit 2018-07-14 05:03:33 / UTC 2018-07-13T03:09:59Z
    FromStats_BitRate                        : 23636
    FromStats_Duration                       : 01:36:10.967000000
    FromStats_FrameCount                     : 2865
    FromStats_StreamSize                     : 17050500

    Text #2
    ID                                       : 5
    Format                                   : PGS
    Muxing mode                              : zlib
    Codec ID                                 : S_HDMV/PGS
    Codec ID/Info                            : Picture based subtitle format used on BDs/HD-DVDs
    Language                                 : Spanish
    Default                                  : No
    Forced                                   : No
    Statistics Tags Issue                    : mkvmerge v15.0.0 ('Duel with the Devil') 64-bit 2018-07-14 05:03:33 / mkvmerge v15.0.0 ('Duel with the Devil') 64-bit 2018-07-14 05:03:33 / UTC 2018-07-13T03:09:59Z
    FromStats_BitRate                        : 18159
    FromStats_Duration                       : 01:40:34.663000000
    FromStats_FrameCount                     : 1990
    FromStats_StreamSize                     : 13698019

    Menu
    00:00:00.000                             : :Chapter 1
    00:03:36.091                             : :Chapter 2
    00:07:53.223                             : :Chapter 3
    00:13:41.279                             : :Chapter 4
    00:16:39.457                             : :Chapter 5
    00:20:45.119                             : :Chapter 6
    00:26:04.438                             : :Chapter 7
    00:29:27.391                             : :Chapter 8
    00:35:58.698                             : :Chapter 9
    00:40:36.601                             : :Chapter 10
    00:44:46.601                             : :Chapter 11
    00:48:15.309                             : :Chapter 12
    00:52:07.708                             : :Chapter 13
    00:56:06.989                             : :Chapter 14
    00:59:07.335                             : :Chapter 15
    01:03:18.003                             : :Chapter 16
    01:08:45.330                             : :Chapter 17
    01:14:03.522                             : :Chapter 18
    01:16:35.257                             : :Chapter 19
    01:20:47.217                             : :Chapter 20
    01:23:36.553                             : :Chapter 21
    01:30:10.030                             : :Chapter 22
    01:33:02.827                             : :Chapter 23
    01:35:41.569                             : :Chapter 24

  • Peso: 3.40 GiB

Sinopsis

Después de que todas las mascotas caninas de Megasaki City sean exiliadas a una isla que es un vertedero, un niño de 12 años emprende un viaje para buscar a su perro extraviado

Ficha técnica

Video trailer de la película

Enlaces de descarga

Rip de Bluray

Descargar Isla de perros (2018) Full 1080p Latino




Aportes de DPeliculasHDmega la pass es:dpeliculashdmega.org Aportes de CinemaniaHD la pass es:cinemaniahdd.com

Películas relacionadas

  • La balada de Buster Scruggs (2018) NF 1080p Latino

    2018
    La balada de Buster Scruggs (2018) NF 1080p Latino

    0.0 2h 12m 2018

    Los siempre singulares Joel y Ethan Cohen escriben y dirigen esta antología de seis historias del Salvaje...

    Director: Joel Coen

    Género: Comedia

    Actores: Zoe Kazan

  • Cambio de princesa (2018) NF 1080p Latino

    2018
    Cambio de princesa (2018) NF 1080p Latino

    0.0 1h 41m 2018

    Una repostera de Chicago y una futura princesa descubren que parecen gemelas, así que idean un plan...

    Director: Mike Rohl

    Género: Comedia

    Actores: Vanessa Hudgens

  • La pequeña brujita (2018) AMZN 1080p Latino

    2018
    La pequeña brujita (2018) AMZN 1080p Latino

    5.0 1h 43m 2018

    Descargar La pequeña brujita (2018) AMZN 1080p Latino, Mega, Google Drive. La pequeña bruja sólo tiene...

    Director: Mike Schaerer

    Género: Comedia

    Actores: Verena Bosshard

  • El Justiciero 2 (2018) Full 1080p Latino

    2018
    El Justiciero 2 (2018) Full 1080p Latino

    5.0 2h 0m 2018

    Descargar El Justiciero 2 (2018) Full 1080p Latino, Mega, Google Drive. Robert McCall (Denzel Washington)...

    Director: Donald Sparks

    Género: Acción

    Actores: Wesley Pereira

Comentarios 1
  • Kevin - 14 julio, 2018

    Gracias amigo Dracarys. Se hizo esperar la plateada. Pero valió la pena. Ahora si la veré. Excelentes tus aportes, súper agradecido. Saludos y sigue así..