×

¿Problemas para descargar con Mozilla, EDGE? Deshabilita la opción "Abrir vinculos en una pestaña nueva" tal como lo muestra ésta imagen.

Isabelle (2018) WebDL 1080p Latino

152 vistas

Información de Isabelle (2018) WebDL 1080p Latino

Datos de la película

  • Calidad: WEBDL
  • Audio: Español Latino AC3 5.1 WEB-DL - Ingles AC3 5.1 WEB-DL
  • Subtitulos: Español Latino SRT- FORZADOS SRT
  • Resolución: 1920x804p
  • Formato: MKV
  • Codec: H.264
  • Encoder: Melkor
  • Mediainfo: Clic para Mostrar Datos Ver
  • Isabelle (2018) WebDL 1080p Latino.mkv
    Format                      : Matroska
    Format version              : Version 4
    File size                   : 4.16 GiB
    Duration                    : 1 h 20 min
    Overall bit rate            : 7 412 kb/s
    Movie name                  : Isabelle (2018) CinemaniaHDD.Net
    Encoded date                : UTC 2021-08-20 23:38:41
    Writing application         : mkvmerge v56.1.0 ('My Friend') 64-bit
    Writing library             : libebml v1.4.2 + libmatroska v1.6.4
    Attachments                 : CINEMANIAHD.png

    Video
    ID                          : 1
    Format                      : AVC
    Format/Info                 : Advanced Video Codec
    Format profile              : High@L4
    Format settings             : CABAC / 5 Ref Frames
    Format settings, CABAC      : Yes
    Format settings, Reference  : 5 frames
    Codec ID                    : V_MPEG4/ISO/AVC
    Duration                    : 1 h 20 min
    Bit rate                    : 6 642 kb/s
    Width                       : 1 920 pixels
    Height                      : 804 pixels
    Display aspect ratio        : 2.40:1
    Frame rate mode             : Constant
    Frame rate                  : 23.976 (23976/1000) FPS
    Color space                 : YUV
    Chroma subsampling          : 4:2:0
    Bit depth                   : 8 bits
    Scan type                   : Progressive
    Bits/(Pixel*Frame)          : 0.179
    Stream size                 : 3.72 GiB (90%)
    Title                       : Web HD1080p [CinemaniaHDD]
    Default                     : Yes
    Forced                      : No
    Color range                 : Limited
    Color primaries             : BT.709
    Transfer characteristics    : BT.709
    Matrix coefficients         : BT.709

    Audio #1
    ID                          : 2
    Format                      : AC-3
    Format/Info                 : Audio Coding 3
    Commercial name             : Dolby Digital
    Codec ID                    : A_AC3
    Duration                    : 1 h 20 min
    Bit rate mode               : Constant
    Bit rate                    : 384 kb/s
    Channel(s)                  : 6 channels
    Channel layout              : L R C LFE Ls Rs
    Sampling rate               : 48.0 kHz
    Frame rate                  : 31.250 FPS (1536 SPF)
    Compression mode            : Lossy
    Stream size                 : 220 MiB (5%)
    Title                       : Español Latino [CinemaniaHDD]
    Language                    : Spanish
    Service kind                : Complete Main
    Default                     : Yes
    Forced                      : No

    Audio #2
    ID                          : 3
    Format                      : AC-3
    Format/Info                 : Audio Coding 3
    Commercial name             : Dolby Digital
    Codec ID                    : A_AC3
    Duration                    : 1 h 20 min
    Bit rate mode               : Constant
    Bit rate                    : 384 kb/s
    Channel(s)                  : 6 channels
    Channel layout              : L R C LFE Ls Rs
    Sampling rate               : 48.0 kHz
    Frame rate                  : 31.250 FPS (1536 SPF)
    Compression mode            : Lossy
    Stream size                 : 220 MiB (5%)
    Title                       : Ingles [CinemaniaHDD]
    Language                    : English
    Service kind                : Complete Main
    Default                     : No
    Forced                      : No

    Text #1
    ID                          : 4
    Format                      : UTF-8
    Codec ID                    : S_TEXT/UTF8
    Codec ID/Info               : UTF-8 Plain Text
    Duration                    : 32 min 44 s
    Bit rate                    : 1 b/s
    Count of elements           : 8
    Stream size                 : 401 Bytes (0%)
    Title                       : Forzados-SRT [CinemaniaHDD]
    Language                    : Spanish
    Default                     : Yes
    Forced                      : No

    Text #2
    ID                          : 5
    Format                      : UTF-8
    Codec ID                    : S_TEXT/UTF8
    Codec ID/Info               : UTF-8 Plain Text
    Duration                    : 1 h 14 min
    Bit rate                    : 42 b/s
    Count of elements           : 882
    Stream size                 : 23.3 KiB (0%)
    Title                       : Español-SRT [CinemaniaHDD]
    Language                    : Spanish
    Default                     : No
    Forced                      : No

  • Peso: 4.16 GiB

Sinopsis

Descargar Isabelle (2018) WebDL 1080p Latino. El sueño de una joven pareja de formar una familia se rompe a medida que descienden a las profundidades de la paranoia y deben luchar para sobrevivir a una presencia maligna que no quiere nada más que sus propias vidas.

Ficha técnica

  • Titulo original: Isabelle
  • Fecha de lanzamiento: 24-05-2019 (Canada, United States of America)
  • Director: Rob Heydon
  • Género: Terror

Video trailer de la película

Enlaces de descarga

Rip de Bluray

Descargar Isabelle (2018) WebDL 1080p Latino




Aportes de DPeliculasHDmega la pass es:dpeliculashdmega.org Aportes de CinemaniaHD la pass es:cinemaniahdd.com
Guardado en : Terror

Películas relacionadas

  • Resurrección (2022) AMZN WEB-DL 1080p Latino

    Resurrección (2022) AMZN WEB-DL 1080p Latino

    2022
    Resurrección (2022) AMZN WEB-DL 1080p Latino

    1h 43m 2022

    Descargar Resurrección (2022) AMZN Web-DL 1080p Latino. La vida cuidadosamente construida de una mujer...

    Director: Michael Kefeyalew

    Género: Drama

    Actores: Zarra Kaahn

  • Nope (2022) [IMAX] REMUX 4K HDR Latino – CMHDD

    Nope (2022) [IMAX] REMUX 4K HDR Latino – CMHDD

    2022
    Nope (2022) [IMAX] REMUX 4K HDR Latino – CMHDD

    2h 15m 2022

    Los habitantes de un remoto pueblo del interior de California, entre los que se encuentran los propietarios...

    Director: Wayne Witherspoon

    Género: Ciencia ficción

    Actores: Wrenn Schmidt

  • The Visitor (2022) AMZN WEB-DL 1080p Latino

    The Visitor (2022) AMZN WEB-DL 1080p Latino

    2022
    The Visitor (2022) AMZN WEB-DL 1080p Latino

    1h 26m 2022

    Descargar The Visitor (2022) AMZN WEB-DL 1080p Latino. Después de una serie de tragedias, incluida la...

    Director: Justin P. Lange

    Género: Misterio

    Actores: Victoria Paige Watkins

  • Sonríe (2022) WEB-DL 4K UHD HDR Latino

    Sonríe (2022) WEB-DL 4K UHD HDR Latino

    2022
    Sonríe (2022) WEB-DL 4K UHD HDR Latino

    1h 55m 2022

    Descargar Sonríe (2022) WEB-DL 4K UHD HDR Latino. Tras presenciar un extraño y traumático incidente...

    Director: Parker Finn

    Género: 4K HDR

    Actores: Vanessa Cozart

  • Sonríe (2022) AMZN WEB-DL 1080p Latino

    Sonríe (2022) AMZN WEB-DL 1080p Latino

    2022
    Sonríe (2022) AMZN WEB-DL 1080p Latino

    1h 55m 2022

    Descargar Sonríe (2022) AMZN WEB-DL 1080p Latino. Tras presenciar un extraño y traumático incidente...

    Director: Parker Finn

    Género: Misterio

    Actores: Vanessa Cozart

descargar Isabelle (2018) WebDL 1080p Latino WEBDL 1080p gratis, Isabelle (2018) WebDL 1080p Latino WEBDL mega 1 link, Isabelle (2018) WebDL 1080p Latino WEBDL pelicula completa, descargar Isabelle (2018) WebDL 1080p Latino WEBDL gratis en mega.

Isabelle (2018) WebDL 1080p Latino pelicula full hd, Isabelle (2018) WebDL 1080p Latino mega latino, Isabelle (2018) WebDL 1080p Latino 4k latino, Isabelle (2018) WebDL 1080p Latino pelicula completa, Isabelle (2018) WebDL 1080p Latino descargar gratis, descargar Isabelle (2018) WebDL 1080p Latino pelicula latino, Isabelle (2018) WebDL 1080p Latino 1 link mega, Isabelle (2018) WebDL 1080p Latino 1 link google drive, Isabelle (2018) WebDL 1080p Latino hd 1080p latino.
Comentarios 0