×

¿Problemas para descargar con Mozilla, EDGE? Deshabilita la opción "Abrir vinculos en una pestaña nueva" tal como lo muestra ésta imagen.

Isabelle (2018) REMUX 1080p Latino

185 vistas

Información de Isabelle (2018) REMUX 1080p Latino

Datos de la película

  • Calidad: Full 1080p
  • Audio: Español Latino AC3 5.1 WEB-DL - Ingles DTS 5.1 BLURAY
  • Subtitulos: Español Latino SRT- FORZADOS SRT
  • Resolución: 1920x1080p
  • Formato: MKV
  • Codec: H.264
  • Encoder: Melkor
  • Mediainfo: Clic para Mostrar Datos Ver
  • Isabelle (2018) REMUX 1080p Latino.mkv
    Format                      : Matroska
    Format version              : Version 4
    File size                   : 12.0 GiB
    Duration                    : 1 h 21 min
    Overall bit rate mode       : Variable
    Overall bit rate            : 21.1 Mb/s
    Movie name                  : Isabelle (2018) CinemaniaHDD.Net
    Encoded date                : UTC 2021-08-20 23:42:30
    Writing application         : mkvmerge v56.1.0 ('My Friend') 64-bit
    Writing library             : libebml v1.4.2 + libmatroska v1.6.4
    Attachments                 : CINEMANIAHD.png

    Video
    ID                          : 1
    Format                      : AVC
    Format/Info                 : Advanced Video Codec
    Format profile              : High@L4.1
    Format settings             : CABAC / 2 Ref Frames
    Format settings, CABAC      : Yes
    Format settings, Reference  : 2 frames
    Format settings, GOP        : M=1, N=5
    Codec ID                    : V_MPEG4/ISO/AVC
    Duration                    : 1 h 21 min
    Bit rate mode               : Variable
    Bit rate                    : 18.5 Mb/s
    Maximum bit rate            : 32.2 Mb/s
    Width                       : 1 920 pixels
    Height                      : 1 080 pixels
    Display aspect ratio        : 16:9
    Frame rate mode             : Constant
    Frame rate                  : 24.000 FPS
    Color space                 : YUV
    Chroma subsampling          : 4:2:0
    Bit depth                   : 8 bits
    Scan type                   : Progressive
    Bits/(Pixel*Frame)          : 0.371
    Stream size                 : 10.6 GiB (88%)
    Title                       : REMUX HD1080p [CinemaniaHDD]
    Default                     : Yes
    Forced                      : No

    Audio #1
    ID                          : 2
    Format                      : AC-3
    Format/Info                 : Audio Coding 3
    Commercial name             : Dolby Digital
    Codec ID                    : A_AC3
    Duration                    : 1 h 21 min
    Bit rate mode               : Constant
    Bit rate                    : 384 kb/s
    Channel(s)                  : 6 channels
    Channel layout              : L R C LFE Ls Rs
    Sampling rate               : 48.0 kHz
    Frame rate                  : 31.250 FPS (1536 SPF)
    Compression mode            : Lossy
    Stream size                 : 225 MiB (2%)
    Title                       : Español Latino [CinemaniaHDD]
    Language                    : Spanish
    Service kind                : Complete Main
    Default                     : Yes
    Forced                      : No

    Audio #2
    ID                          : 3
    Format                      : DTS XLL
    Format/Info                 : Digital Theater Systems
    Commercial name             : DTS-HD Master Audio
    Codec ID                    : A_DTS
    Duration                    : 1 h 21 min
    Bit rate mode               : Variable
    Bit rate                    : 2 175 kb/s
    Channel(s)                  : 6 channels
    Channel layout              : C L R Ls Rs LFE
    Sampling rate               : 48.0 kHz
    Frame rate                  : 93.750 FPS (512 SPF)
    Bit depth                   : 24 bits
    Compression mode            : Lossless
    Stream size                 : 1.24 GiB (10%)
    Title                       : Ingles [CinemaniaHDD]
    Language                    : English
    Default                     : No
    Forced                      : No

    Text #1
    ID                          : 4
    Format                      : UTF-8
    Codec ID                    : S_TEXT/UTF8
    Codec ID/Info               : UTF-8 Plain Text
    Duration                    : 32 min 42 s
    Bit rate                    : 1 b/s
    Count of elements           : 8
    Stream size                 : 401 Bytes (0%)
    Title                       : Forzados-SRT [CinemaniaHDD]
    Language                    : Spanish
    Default                     : Yes
    Forced                      : No

    Text #2
    ID                          : 5
    Format                      : UTF-8
    Codec ID                    : S_TEXT/UTF8
    Codec ID/Info               : UTF-8 Plain Text
    Duration                    : 1 h 14 min
    Bit rate                    : 42 b/s
    Count of elements           : 882
    Stream size                 : 23.3 KiB (0%)
    Title                       : Español-SRT [CinemaniaHDD]
    Language                    : Spanish
    Default                     : No
    Forced                      : No

    Text #3
    ID                          : 6
    Format                      : PGS
    Muxing mode                 : zlib
    Codec ID                    : S_HDMV/PGS
    Codec ID/Info               : Picture based subtitle format used on BDs/HD-DVDs
    Duration                    : 1 h 13 min
    Bit rate                    : 30.1 kb/s
    Count of elements           : 1780
    Stream size                 : 15.9 MiB (0%)
    Title                       : Ingles-PGS [CinemaniaHDD]
    Language                    : English
    Default                     : No
    Forced                      : No

    Menu
    00:00:00.000                : Chapter 01
    00:02:57.333                : Chapter 02
    00:06:38.667                : Chapter 03
    00:10:51.708                : Chapter 04
    00:15:34.375                : Chapter 05
    00:19:20.125                : Chapter 06
    00:24:02.583                : Chapter 07
    00:28:23.750                : Chapter 08
    00:32:24.917                : Chapter 09
    00:36:15.125                : Chapter 10
    00:40:23.833                : Chapter 11
    00:45:06.792                : Chapter 12
    00:49:19.250                : Chapter 13
    00:54:18.750                : Chapter 14
    00:58:47.917                : Chapter 15
    01:02:26.917                : Chapter 16
    01:06:10.542                : Chapter 17
    01:09:51.875                : Chapter 18
    01:13:32.333                : Chapter 19
    01:16:55.583                : Chapter 20

  • Peso: 12.0 GiB

Sinopsis

Descargar Isabelle (2018) REMUX 1080p Latino. El sueño de una joven pareja de formar una familia se rompe a medida que descienden a las profundidades de la paranoia y deben luchar para sobrevivir a una presencia maligna que no quiere nada más que sus propias vidas.

Nota: Disponible solo para VIP!!! 🙂

Ficha técnica

  • Titulo original: Isabelle
  • Fecha de lanzamiento: 24-05-2019 (Canada, United States of America)
  • Director: Rob Heydon
  • Género: Remux, Terror

Video trailer de la película

Enlaces de descarga

Rip de Bluray

Descargar Isabelle (2018) REMUX 1080p Latino


Aportes de DPeliculasHDmega la pass es:dpeliculashdmega.org Aportes de CinemaniaHD la pass es:cinemaniahdd.com
Guardado en : Remux , Terror

Películas relacionadas

  • M3GAN (2023) AMZN WEB-DL 4K UHD HDR Latino

    M3GAN (2023) AMZN WEB-DL 4K UHD HDR Latino

    2022
    M3GAN (2023) AMZN WEB-DL 4K UHD HDR Latino

    1h 42m 2022

    Descargar M3GAN (2023) AMZN WEB-DL 4K UHD HDR Latino. Cuando Gemma se convierte en la cuidadora de su...

    Director: Stephen W. Moore

    Género: 4K HDR

    Actores: Violet McGraw

  • M3GAN (2022) MA WEB-DL 1080p Latino

    M3GAN (2022) MA WEB-DL 1080p Latino

    2022
    M3GAN (2022) MA WEB-DL 1080p Latino

    1h 42m 2022

    Descargar M3GAN (2022) MA WEB-DL 1080p Latino. Cuando Gemma se convierte en la cuidadora de su sobrina...

    Director: Stephen W. Moore

    Género: Ciencia ficción

    Actores: Violet McGraw

  • Mar de sangre (2022) WEB-DL 1080p Latino

    Mar de sangre (2022) WEB-DL 1080p Latino

    2022
    Mar de sangre (2022) WEB-DL 1080p Latino

    1h 27m 2022

    Descargar Mar de sangre (2022) WEB-DL 1080p Latino. Un grupo de amigos que disfrutan de un fin de semana...

    Director: James Nunn

    Género: Acción

    Actores: Thomas Michael Flynn

  • Noche sin paz (2022) REMUX 1080p Latino

    Noche sin paz (2022) REMUX 1080p Latino

    2022
    Noche sin paz (2022) REMUX 1080p Latino

    1h 41m 2022

    Descargar Noche sin paz (2022) REMUX 1080p Latino. Cuando un equipo de mercenarios irrumpe en Nochebuena...

    Director: Tyshana Hobson

    Género: Acción

    Actores: Yoon Cha-Lee

descargar Isabelle (2018) REMUX 1080p Latino Full 1080p 1080p gratis, Isabelle (2018) REMUX 1080p Latino Full 1080p mega 1 link, Isabelle (2018) REMUX 1080p Latino Full 1080p pelicula completa, descargar Isabelle (2018) REMUX 1080p Latino Full 1080p gratis en mega.

Isabelle (2018) REMUX 1080p Latino pelicula full hd, Isabelle (2018) REMUX 1080p Latino mega latino, Isabelle (2018) REMUX 1080p Latino 4k latino, Isabelle (2018) REMUX 1080p Latino pelicula completa, Isabelle (2018) REMUX 1080p Latino descargar gratis, descargar Isabelle (2018) REMUX 1080p Latino pelicula latino, Isabelle (2018) REMUX 1080p Latino 1 link mega, Isabelle (2018) REMUX 1080p Latino 1 link google drive, Isabelle (2018) REMUX 1080p Latino hd 1080p latino.
Comentarios 0