×

¿Problemas para descargar con Mozilla, EDGE? Deshabilita la opción "Abrir vinculos en una pestaña nueva" tal como lo muestra ésta imagen.

IP Man: El maestro del kung fu (2019) REMUX 1080p Latino

220 vistas

Información de IP Man: El maestro del kung fu (2019) REMUX 1080p Latino

Datos de la película

  • Calidad: Full 1080p
  • Audio: Se especifica abajo de la Sinopsis
  • Subtitulos: Español Latino SRT- FORZADOS SRT
  • Resolución: 1920x1080p
  • Formato: MKV
  • Codec: H.264
  • Encoder: Melkor
  • Mediainfo: Clic para Mostrar Datos Ver
  • Ip Man El Maestro Del Kung Fu (2019) REMUX 1080p Latino.mkv
    Format                      : Matroska
    Format version              : Version 4
    File size                   : 21.6 GiB
    Duration                    : 1 h 24 min
    Overall bit rate mode       : Variable
    Overall bit rate            : 36.7 Mb/s
    Movie name                  : Ip Man - Kung Fu Master (2019) CinemaniaHDD.Net
    Encoded date                : UTC 2021-03-15 05:56:20
    Writing application         : mkvmerge v51.0.0 ('I Wish') 64-bit
    Writing library             : libebml v1.4.0 + libmatroska v1.6.2
    Attachments                 : CINEMANIAHD.png

    Video
    ID                          : 1
    Format                      : AVC
    Format/Info                 : Advanced Video Codec
    Format profile              : High@L4.1
    Format settings             : CABAC / 3 Ref Frames
    Format settings, CABAC      : Yes
    Format settings, Reference  : 3 frames
    Codec ID                    : V_MPEG4/ISO/AVC
    Duration                    : 1 h 24 min
    Bit rate mode               : Variable
    Bit rate                    : 32.0 Mb/s
    Maximum bit rate            : 35.0 Mb/s
    Width                       : 1 920 pixels
    Height                      : 1 080 pixels
    Display aspect ratio        : 16:9
    Frame rate mode             : Constant
    Frame rate                  : 23.976 (24000/1001) FPS
    Color space                 : YUV
    Chroma subsampling          : 4:2:0
    Bit depth                   : 8 bits
    Scan type                   : Progressive
    Bits/(Pixel*Frame)          : 0.645
    Stream size                 : 18.8 GiB (87%)
    Title                       : REMUX HD1080p [CinemaniaHDD]
    Default                     : Yes
    Forced                      : No

    Audio #1
    ID                          : 2
    Format                      : AC-3
    Format/Info                 : Audio Coding 3
    Commercial name             : Dolby Digital
    Codec ID                    : A_AC3
    Duration                    : 1 h 24 min
    Bit rate mode               : Constant
    Bit rate                    : 384 kb/s
    Channel(s)                  : 6 channels
    Channel layout              : L R C LFE Ls Rs
    Sampling rate               : 48.0 kHz
    Frame rate                  : 31.250 FPS (1536 SPF)
    Compression mode            : Lossy
    Stream size                 : 231 MiB (1%)
    Title                       : Español Latino [CinemaniaHDD]
    Language                    : Spanish
    Service kind                : Complete Main
    Default                     : Yes
    Forced                      : No

    Audio #2
    ID                          : 3
    Format                      : DTS XLL
    Format/Info                 : Digital Theater Systems
    Commercial name             : DTS-HD Master Audio
    Codec ID                    : A_DTS
    Duration                    : 1 h 24 min
    Bit rate mode               : Variable
    Bit rate                    : 4 213 kb/s
    Channel(s)                  : 6 channels
    Channel layout              : C L R Ls Rs LFE
    Sampling rate               : 48.0 kHz
    Frame rate                  : 93.750 FPS (512 SPF)
    Bit depth                   : 24 bits
    Compression mode            : Lossless
    Stream size                 : 2.48 GiB (11%)
    Title                       : Chino [CinemaniaHDD]
    Language                    : Chinese
    Default                     : No
    Forced                      : No

    Text #1
    ID                          : 4
    Format                      : UTF-8
    Codec ID                    : S_TEXT/UTF8
    Codec ID/Info               : UTF-8 Plain Text
    Duration                    : 5 s 548 ms
    Bit rate                    : 43 b/s
    Count of elements           : 1
    Stream size                 : 30.0 Bytes (0%)
    Title                       : Forzados-SRT [CinemaniaHDD]
    Language                    : Spanish
    Default                     : Yes
    Forced                      : No

    Text #2
    ID                          : 5
    Format                      : UTF-8
    Codec ID                    : S_TEXT/UTF8
    Codec ID/Info               : UTF-8 Plain Text
    Duration                    : 1 h 20 min
    Bit rate                    : 32 b/s
    Count of elements           : 611
    Stream size                 : 19.1 KiB (0%)
    Title                       : Español-SRT [CinemaniaHDD]
    Language                    : Spanish
    Default                     : No
    Forced                      : No

    Text #3
    ID                          : 6
    Format                      : UTF-8
    Codec ID                    : S_TEXT/UTF8
    Codec ID/Info               : UTF-8 Plain Text
    Duration                    : 1 h 20 min
    Bit rate                    : 31 b/s
    Count of elements           : 689
    Stream size                 : 18.8 KiB (0%)
    Title                       : Ingles-SRT [CinemaniaHDD]
    Language                    : English
    Default                     : No
    Forced                      : No

    Menu
    00:00:00.000                : en:Chapter 01
    00:08:50.155                : en:Chapter 02
    00:14:56.562                : en:Chapter 03
    00:21:22.364                : en:Chapter 04
    00:28:42.012                : en:Chapter 05
    00:35:31.504                : en:Chapter 06
    00:43:01.037                : en:Chapter 07
    00:50:13.427                : en:Chapter 08
    00:56:34.099                : en:Chapter 09
    01:06:14.512                : en:Chapter 10
    01:12:27.718                : en:Chapter 11
    01:21:31.261                : en:Chapter 12

  • Peso: 21.6 GiB

Sinopsis

Descargar IP Man: El maestro del kung fu (2019) REMUX 1080p Latino. Durante su época como jefe de policía de Foshan, Ip Man se convierte en el objetivo de un vengativo gangster justo cuando las fuerzas japonesas invaden la región.

Español Latino AC3 5.1 WebDL – Chino DTS-HD 5.1 Bluray

Ficha técnica

Video trailer de la película

Enlaces de descarga

Rip de Bluray

Descargar IP Man: El maestro del kung fu (2019) REMUX 1080p Latino




Aportes de DPeliculasHDmega la pass es:dpeliculashdmega.org Aportes de CinemaniaHD la pass es:cinemaniahdd.com
Guardado en : Acción , Drama , Remux

Películas relacionadas

  • Zola (2020) REMUX 1080p Latino

    Zola (2020) REMUX 1080p Latino

    2020
    Zola (2020) REMUX 1080p Latino

    1h 26m 2020

    Descargar Zola (2020) REMUX 1080p Latino. Una camarera accede a acompañar a una bailarina exótica,...

    Director: Sheri Davani

    Género: Comedia

    Actores: Ts Madison

  • Hocus Pocus: Abracadabra (1993) REMUX 1080p Latino

    Hocus Pocus: Abracadabra (1993) REMUX 1080p Latino

    1993
    Hocus Pocus: Abracadabra (1993) REMUX 1080p Latino

    1h 36m 1993

    Descargar Hocus Pocus: Abracadabra (1993) REMUX 1080p Latino. Tres brujas del siglo XII son invocadas...

    Director: Kenny Ortega

    Género: Comedia

    Actores: Vinessa Shaw

  • Togo (2022) NF WEB-DL 1080p Latino

    Togo (2022) NF WEB-DL 1080p Latino

    2022
    Togo (2022) NF WEB-DL 1080p Latino

    1h 35m 2022

    Descargar Togo (2022) NF WEB-DL 1080p Latino. Los narcos de poca monta están copando las calles de Montevideo...

    Director: Adrián Caetano

    Género: Crimen

    Actores: Tito Prieto

descargar IP Man: El maestro del kung fu (2019) REMUX 1080p Latino Full 1080p 1080p gratis, IP Man: El maestro del kung fu (2019) REMUX 1080p Latino Full 1080p mega 1 link, IP Man: El maestro del kung fu (2019) REMUX 1080p Latino Full 1080p pelicula completa, descargar IP Man: El maestro del kung fu (2019) REMUX 1080p Latino Full 1080p gratis en mega.

IP Man: El maestro del kung fu (2019) REMUX 1080p Latino pelicula full hd, IP Man: El maestro del kung fu (2019) REMUX 1080p Latino mega latino, IP Man: El maestro del kung fu (2019) REMUX 1080p Latino 4k latino, IP Man: El maestro del kung fu (2019) REMUX 1080p Latino pelicula completa, IP Man: El maestro del kung fu (2019) REMUX 1080p Latino descargar gratis, descargar IP Man: El maestro del kung fu (2019) REMUX 1080p Latino pelicula latino, IP Man: El maestro del kung fu (2019) REMUX 1080p Latino 1 link mega, IP Man: El maestro del kung fu (2019) REMUX 1080p Latino 1 link google drive, IP Man: El maestro del kung fu (2019) REMUX 1080p Latino hd 1080p latino.
Comentarios 0