×

¿Problemas para descargar con Mozilla, EDGE? Deshabilita la opción "Abrir vinculos en una pestaña nueva" tal como lo muestra ésta imagen.

IP Man: El maestro del kung fu (2019) PLACEBO Full HD 1080p Latino

424 vistas

Información de IP Man: El maestro del kung fu (2019) PLACEBO Full HD 1080p Latino

Datos de la película

  • Calidad: Full 1080p
  • Audio: Se especifica abajo de la Sinopsis
  • Subtitulos: Español Latino SRT- FORZADOS SRT
  • Resolución: 1920x1080p
  • Formato: MKV
  • Codec: H.264
  • Encoder: Melkor
  • Mediainfo: Clic para Mostrar Datos Ver
  • Ip Man El Maestro Del Kung Fu (2019) PLACEBO 1080p Latino.mkv
    Format                      : Matroska
    Format version              : Version 4
    File size                   : 3.74 GiB
    Duration                    : 1 h 24 min
    Overall bit rate            : 6 362 kb/s
    Movie name                  : Ip Man - Kung Fu Master (2019) CinemaniaHDD.Net
    Encoded date                : UTC 2021-03-21 06:16:46
    Writing application         : mkvmerge v51.0.0 ('I Wish') 64-bit
    Writing library             : libebml v1.4.0 + libmatroska v1.6.2
    Attachments                 : CINEMANIAHD.png

    Video
    ID                          : 1
    Format                      : AVC
    Format/Info                 : Advanced Video Codec
    Format profile              : High@L4.1
    Format settings             : CABAC / 4 Ref Frames
    Format settings, CABAC      : Yes
    Format settings, Reference  : 4 frames
    Codec ID                    : V_MPEG4/ISO/AVC
    Duration                    : 1 h 24 min
    Bit rate                    : 4 466 kb/s
    Width                       : 1 920 pixels
    Height                      : 1 080 pixels
    Display aspect ratio        : 16:9
    Frame rate mode             : Constant
    Frame rate                  : 23.976 (24000/1001) FPS
    Color space                 : YUV
    Chroma subsampling          : 4:2:0
    Bit depth                   : 8 bits
    Scan type                   : Progressive
    Bits/(Pixel*Frame)          : 0.090
    Stream size                 : 2.63 GiB (70%)
    Title                       : Full HD1080p [CinemaniaHDD]
    Writing library             : x264 core 157 r2935 545de2f
    Encoding settings           : cabac=1 / ref=4 / deblock=1:0:0 / analyse=0x3:0x133 / me=tesa / subme=11 / psy=1 / psy_rd=1.00:0.00 / mixed_ref=1 / me_range=24 / chroma_me=1 / trellis=2 / 8x8dct=1 / cqm=0 / deadzone=21,11 / fast_pskip=0 / chroma_qp_offset=-2 / threads=24 / lookahead_threads=6 / sliced_threads=0 / nr=0 / decimate=1 / interlaced=0 / bluray_compat=0 / constrained_intra=0 / bframes=16 / b_pyramid=2 / b_adapt=2 / b_bias=0 / direct=3 / weightb=1 / open_gop=0 / weightp=2 / keyint=240 / keyint_min=24 / scenecut=40 / intra_refresh=0 / rc_lookahead=60 / rc=crf / mbtree=1 / crf=19.0 / qcomp=0.60 / qpmin=0 / qpmax=69 / qpstep=4 / vbv_maxrate=62500 / vbv_bufsize=78125 / crf_max=0.0 / nal_hrd=none / filler=0 / ip_ratio=1.40 / aq=1:1.00
    Default                     : Yes
    Forced                      : Yes
    Color range                 : Limited
    Color primaries             : BT.709
    Transfer characteristics    : BT.709
    Matrix coefficients         : BT.709

    Audio #1
    ID                          : 2
    Format                      : AC-3
    Format/Info                 : Audio Coding 3
    Commercial name             : Dolby Digital
    Codec ID                    : A_AC3
    Duration                    : 1 h 24 min
    Bit rate mode               : Constant
    Bit rate                    : 384 kb/s
    Channel(s)                  : 6 channels
    Channel layout              : L R C LFE Ls Rs
    Sampling rate               : 48.0 kHz
    Frame rate                  : 31.250 FPS (1536 SPF)
    Compression mode            : Lossy
    Stream size                 : 231 MiB (6%)
    Title                       : Español Latino [CinemaniaHDD]
    Language                    : Spanish
    Service kind                : Complete Main
    Default                     : Yes
    Forced                      : Yes

    Audio #2
    ID                          : 3
    Format                      : DTS
    Format/Info                 : Digital Theater Systems
    Codec ID                    : A_DTS
    Duration                    : 1 h 24 min
    Bit rate mode               : Constant
    Bit rate                    : 1 509 kb/s
    Channel(s)                  : 6 channels
    Channel layout              : C L R Ls Rs LFE
    Sampling rate               : 48.0 kHz
    Frame rate                  : 93.750 FPS (512 SPF)
    Bit depth                   : 24 bits
    Compression mode            : Lossy
    Stream size                 : 909 MiB (24%)
    Title                       : Chino [CinemaniaHDD]
    Language                    : Chinese
    Default                     : No
    Forced                      : No

    Text #1
    ID                          : 4
    Format                      : UTF-8
    Codec ID                    : S_TEXT/UTF8
    Codec ID/Info               : UTF-8 Plain Text
    Duration                    : 5 s 548 ms
    Bit rate                    : 43 b/s
    Count of elements           : 1
    Stream size                 : 30.0 Bytes (0%)
    Title                       : Forzados-SRT [CinemaniaHDD]
    Language                    : Spanish
    Default                     : Yes
    Forced                      : Yes

    Text #2
    ID                          : 5
    Format                      : UTF-8
    Codec ID                    : S_TEXT/UTF8
    Codec ID/Info               : UTF-8 Plain Text
    Duration                    : 1 h 20 min
    Bit rate                    : 32 b/s
    Count of elements           : 611
    Stream size                 : 19.1 KiB (0%)
    Title                       : Español-SRT [CinemaniaHDD]
    Language                    : Spanish
    Default                     : No
    Forced                      : No

    Text #3
    ID                          : 6
    Format                      : UTF-8
    Codec ID                    : S_TEXT/UTF8
    Codec ID/Info               : UTF-8 Plain Text
    Duration                    : 1 h 20 min
    Bit rate                    : 31 b/s
    Count of elements           : 689
    Stream size                 : 18.8 KiB (0%)
    Title                       : Ingles-SRT [CinemaniaHDD]
    Language                    : English
    Default                     : No
    Forced                      : No

    Menu
    00:00:00.000                : en:Chapter 01
    00:08:50.155                : en:Chapter 02
    00:14:56.562                : en:Chapter 03
    00:21:22.364                : en:Chapter 04
    00:28:42.012                : en:Chapter 05
    00:35:31.504                : en:Chapter 06
    00:43:01.037                : en:Chapter 07
    00:50:13.427                : en:Chapter 08
    00:56:34.099                : en:Chapter 09
    01:06:14.512                : en:Chapter 10
    01:12:27.718                : en:Chapter 11
    01:21:31.261                : en:Chapter 12

  • Peso: 3.74 GiB

Sinopsis

Descargar IP Man: El maestro del kung fu (2019) PLACEBO Full HD 1080p Latino. Durante su época como jefe de policía de Foshan, Ip Man se convierte en el objetivo de un vengativo gangster justo cuando las fuerzas japonesas invaden la región.

Español Latino AC3 5.1 WebDL – Chino DTS 5.1 Bluray

Ficha técnica

Video trailer de la película

Enlaces de descarga

Rip de Bluray

Descargar IP Man: El maestro del kung fu (2019) PLACEBO Full HD 1080p Latino




Aportes de DPeliculasHDmega la pass es:dpeliculashdmega.org Aportes de CinemaniaHD la pass es:cinemaniahdd.com

Películas relacionadas

descargar IP Man: El maestro del kung fu (2019) PLACEBO Full HD 1080p Latino Full 1080p 1080p gratis, IP Man: El maestro del kung fu (2019) PLACEBO Full HD 1080p Latino Full 1080p mega 1 link, IP Man: El maestro del kung fu (2019) PLACEBO Full HD 1080p Latino Full 1080p pelicula completa, descargar IP Man: El maestro del kung fu (2019) PLACEBO Full HD 1080p Latino Full 1080p gratis en mega.

IP Man: El maestro del kung fu (2019) PLACEBO Full HD 1080p Latino pelicula full hd, IP Man: El maestro del kung fu (2019) PLACEBO Full HD 1080p Latino mega latino, IP Man: El maestro del kung fu (2019) PLACEBO Full HD 1080p Latino 4k latino, IP Man: El maestro del kung fu (2019) PLACEBO Full HD 1080p Latino pelicula completa, IP Man: El maestro del kung fu (2019) PLACEBO Full HD 1080p Latino descargar gratis, descargar IP Man: El maestro del kung fu (2019) PLACEBO Full HD 1080p Latino pelicula latino, IP Man: El maestro del kung fu (2019) PLACEBO Full HD 1080p Latino 1 link mega, IP Man: El maestro del kung fu (2019) PLACEBO Full HD 1080p Latino 1 link google drive, IP Man: El maestro del kung fu (2019) PLACEBO Full HD 1080p Latino hd 1080p latino.
Comentarios 0