Ip Man 4 The Finale (2019) Full HD 1080p Latino

1.778 vistas
1 estrella2 estrellas3 estrellas4 estrellas5 estrellas (2 votos, promedio: 5,00 de 5)
Cargando...

Información de Ip Man 4 The Finale (2019) Full HD 1080p Latino

Datos de la película

  • Calidad: Full 1080p
  • Audio: Se especifica abajo de la Sinopsis
  • Subtitulos: Español Latino SRT- FORZADOS SRT
  • Resolución: 1920x1080p
  • Formato: MKV
  • Codec: H.264
  • Encoder: Dracarys
  • Mediainfo: Clic para Mostrar Datos Ver
  • Ip Man 4 The Finale (2019) Full HD 1080p Latino [CNMNHDD].mkv
    Format                      : Matroska
    Format version              : Version 4
    File size                   : 6.72 GiB
    Duration                    : 1 h 45 min
    Overall bit rate mode       : Variable
    Overall bit rate            : 9 146 kb/s
    Movie name                  : Ip Man 4 The Finale (2019) Full HD - CinemaniaHDD.Net
    Encoded date                : UTC 2021-01-04 01:24:24
    Writing application         : mkvmerge v51.0.0 ('I Wish') 64-bit
    Writing library             : libebml v1.4.0 + libmatroska v1.6.2

    Video
    ID                          : 1
    Format                      : AVC
    Format/Info                 : Advanced Video Codec
    Format profile              : High@L4.1
    Format settings             : CABAC / 4 Ref Frames
    Format settings, CABAC      : Yes
    Format settings, Reference  : 4 frames
    Codec ID                    : V_MPEG4/ISO/AVC
    Duration                    : 1 h 45 min
    Bit rate                    : 3 712 kb/s
    Width                       : 1 920 pixels
    Height                      : 1 080 pixels
    Display aspect ratio        : 16:9
    Frame rate mode             : Constant
    Frame rate                  : 24.000 FPS
    Color space                 : YUV
    Chroma subsampling          : 4:2:0
    Bit depth                   : 8 bits
    Scan type                   : Progressive
    Bits/(Pixel*Frame)          : 0.075
    Stream size                 : 2.73 GiB (41%)
    Title                       : CinemaniaHDD
    Writing library             : x264 core 157 r2935 545de2f
    Encoding settings           : cabac=1 / ref=4 / deblock=1:0:0 / analyse=0x3:0x133 / me=tesa / subme=11 / psy=1 / psy_rd=1.00:0.00 / mixed_ref=1 / me_range=24 / chroma_me=1 / trellis=2 / 8x8dct=1 / cqm=0 / deadzone=21,11 / fast_pskip=0 / chroma_qp_offset=-2 / threads=34 / lookahead_threads=8 / sliced_threads=0 / nr=0 / decimate=1 / interlaced=0 / bluray_compat=0 / constrained_intra=0 / bframes=16 / b_pyramid=2 / b_adapt=2 / b_bias=0 / direct=3 / weightb=1 / open_gop=0 / weightp=2 / keyint=240 / keyint_min=24 / scenecut=40 / intra_refresh=0 / rc_lookahead=60 / rc=crf / mbtree=1 / crf=20.0 / qcomp=0.60 / qpmin=0 / qpmax=69 / qpstep=4 / vbv_maxrate=62500 / vbv_bufsize=78125 / crf_max=0.0 / nal_hrd=none / filler=0 / ip_ratio=1.40 / aq=1:1.00
    Default                     : Yes
    Forced                      : No
    Color range                 : Limited
    Color primaries             : BT.709
    Transfer characteristics    : BT.709
    Matrix coefficients         : BT.709

    Audio #1
    ID                          : 2
    Format                      : AC-3
    Format/Info                 : Audio Coding 3
    Commercial name             : Dolby Digital
    Codec ID                    : A_AC3
    Duration                    : 1 h 45 min
    Bit rate mode               : Constant
    Bit rate                    : 256 kb/s
    Channel(s)                  : 2 channels
    Channel layout              : L R
    Sampling rate               : 48.0 kHz
    Frame rate                  : 31.250 FPS (1536 SPF)
    Compression mode            : Lossy
    Stream size                 : 193 MiB (3%)
    Title                       : Español latino [CinemaniaHDD]
    Language                    : Spanish
    Service kind                : Complete Main
    Default                     : Yes
    Forced                      : No

    Audio #2
    ID                          : 3
    Format                      : DTS XLL
    Format/Info                 : Digital Theater Systems
    Commercial name             : DTS-HD Master Audio
    Codec ID                    : A_DTS
    Duration                    : 1 h 45 min
    Bit rate mode               : Variable
    Bit rate                    : 4 534 kb/s
    Channel(s)                  : 8 channels
    Channel layout              : C L R LFE Lb Rb Lss Rss
    Sampling rate               : 48.0 kHz
    Frame rate                  : 93.750 FPS (512 SPF)
    Bit depth                   : 24 bits
    Compression mode            : Lossless
    Stream size                 : 3.33 GiB (50%)
    Title                       : Chino DTS-HD [CinemaniaHDD]
    Language                    : Chinese
    Default                     : No
    Forced                      : No

    Audio #3
    ID                          : 4
    Format                      : AC-3
    Format/Info                 : Audio Coding 3
    Commercial name             : Dolby Digital
    Codec ID                    : A_AC3
    Duration                    : 1 h 45 min
    Bit rate mode               : Constant
    Bit rate                    : 640 kb/s
    Channel(s)                  : 6 channels
    Channel layout              : L R C LFE Ls Rs
    Sampling rate               : 48.0 kHz
    Frame rate                  : 31.250 FPS (1536 SPF)
    Compression mode            : Lossy
    Stream size                 : 482 MiB (7%)
    Title                       : Chino [CinemaniaHDD]
    Language                    : Chinese
    Service kind                : Complete Main
    Default                     : No
    Forced                      : No

    Text #1
    ID                          : 5
    Format                      : UTF-8
    Codec ID                    : S_TEXT/UTF8
    Codec ID/Info               : UTF-8 Plain Text
    Duration                    : 1 h 40 min
    Bit rate                    : 0 b/s
    Count of elements           : 19
    Stream size                 : 543 Bytes (0%)
    Title                       : Forzados [CinemaniaHDD]
    Language                    : Spanish
    Default                     : Yes
    Forced                      : Yes

    Text #2
    ID                          : 6
    Format                      : UTF-8
    Codec ID                    : S_TEXT/UTF8
    Codec ID/Info               : UTF-8 Plain Text
    Duration                    : 1 h 40 min
    Bit rate                    : 46 b/s
    Count of elements           : 1250
    Stream size                 : 34.2 KiB (0%)
    Title                       : Español latino [CinemaniaHDD]
    Language                    : Spanish
    Default                     : No
    Forced                      : No

    Menu
    00:00:00.000                : :Chapter 1
    00:11:01.292                : :Chapter 2
    00:21:05.417                : :Chapter 3
    00:31:38.917                : :Chapter 4
    00:40:56.542                : :Chapter 5
    00:50:02.542                : :Chapter 6
    00:58:48.125                : :Chapter 7
    01:10:40.292                : :Chapter 8
    01:18:20.208                : :Chapter 9
    01:29:57.875                : :Chapter 10
    01:41:41.500                : :Chapter 11

     

  • Peso: 6.72 GiB

Sinopsis

El maestro de Kung Fu viaja a los Estados Unidos, donde uno de sus estudiantes ha molestado a la comunidad de artes marciales al abrir una escuela de Wing Chun.

Español Latino 2.0 WEB-DL – Chino DTS-HD 7.1 + Core BD

Ficha técnica

Video trailer de la película

Enlaces de descarga

Rip de Bluray

Descargar Ip Man 4 The Finale (2019) Full HD 1080p Latino




Aportes de DPeliculasHDmega la pass es:dpeliculashdmega.org Aportes de CinemaniaHD la pass es:cinemaniahdd.com

Películas relacionadas

  • Cobra Kai (2019) Temporada 02 REMUX 1080p Latino

    Cobra Kai (2019) Temporada 02 REMUX 1080p Latino

    2018
    Cobra Kai (2019) Temporada 02 REMUX 1080p Latino

    0.0 0h 30m 2018

    Descargar Cobra Kai (2019) Temporada 02 REMUX 1080p Latino. La segunda temporada continúa con la...

    Director: Josh Heald

    Género: Drama

    Actores: Xolo Mariduena

  • Cobra Kai (2018) Temporada 01 REMUX 1080p Latino

    Cobra Kai (2018) Temporada 01 REMUX 1080p Latino

    2018
    Cobra Kai (2018) Temporada 01 REMUX 1080p Latino

    0.0 0h 30m 2018

    Descargar Cobra Kai (2018) Temporada 01 REMUX 1080p Latino. La serie sigue la historia 34 años después...

    Director: Josh Heald

    Género: Drama

    Actores: Xolo Mariduena

  • 2012 (2009) REMUX 1080p Latino – CMHDD

    2012 (2009) REMUX 1080p Latino – CMHDD

    2009
    2012 (2009) REMUX 1080p Latino – CMHDD

    0.0 2h 38m 2009

    El geólogo Adrian Helmsley, descubre de que el núcleo de la Tierra se está calentando. Teme que la...

    Director: Tommy Gormley

    Género: Acción

    Actores: Zlatko Burić

  • 2012 (2009) REMUX 4K HDR Latino – CMHDD

    2012 (2009) REMUX 4K HDR Latino – CMHDD

    2009
    2012 (2009) REMUX 4K HDR Latino – CMHDD

    0.0 2h 38m 2009

    El geólogo Adrian Helmsley, descubre de que el núcleo de la Tierra se está calentando. Teme que la...

    Director: Tommy Gormley

    Género: Acción

    Actores: Zlatko Burić

  • El día del fin del mundo (2020) HD 1080p Latino

    El día del fin del mundo (2020) HD 1080p Latino

    2020
    El día del fin del mundo (2020) HD 1080p Latino

    0.0 1h 59m 2020

    Descargar El día del fin del mundo (2020) HD 1080p Latino. Un matrimonio a punto de separarse debe tratar...

    Director: Ric Roman Waugh

    Género: Acción

    Actores: Tracey Bonner

Comentarios 10
  • Edwin - 02 diciembre, 2020

    Hola amigo cuando suben IP MAN 4 audio latino….?

    • Dracarys - 02 diciembre, 2020

      aun no se sabe

  • ocpgaiden - 06 septiembre, 2020

    Gracias po r las 4 peliculas de Ip Man en Full hd, saludos

  • carlos - 03 julio, 2020

    porque no puedo ver los enlaces públicos? ayuda ;(

    • Dracarys - 03 julio, 2020

      Usar un VPN para cambiar país y que te cargue bien la publicidad…

  • Alejandro - 24 abril, 2020

    Subirán las demás películas?

  • ronald - 22 abril, 2020

    su descripcion es herrada, dice audio español latino y sale que es chino

    Calidad: Full 1080p
    Audio: Español Latino AC3 2.0
    Subtitulos: Español Latino SRT
    Resolución: 1920x1080p
    Formato: MKV
    Codec: H.264
    Encoder: Dracarys
    Mediainfo: Clic para Mostrar Datos
    Peso: 6.06 GiB

    • Dracarys - 24 abril, 2020

      corregido

  • Luis Marcelo - 19 abril, 2020

    Hola queria saber si va estar disponible en audio latino?

    • Dracarys - 22 abril, 2020

      cuando este en latino se resubira