×

¿Problemas para descargar con Mozilla, EDGE? Deshabilita la opción "Abrir vinculos en una pestaña nueva" tal como lo muestra ésta imagen.

IP Man 3 (2015) 4K HDR REMUX Latino – CMHDD

263 vistas

Información de IP Man 3 (2015) 4K HDR REMUX Latino – CMHDD

Datos de la película

  • Calidad: 4K HDR
  • Audio: Se especifica abajo de la Sinopsis
  • Subtitulos: Español Latino PGS
  • Resolución: 3840x2160p
  • Formato: MKV
  • Codec: HEVC
  • Encoder: Dracarys
  • Mediainfo: Clic para Mostrar Datos Ver
  • Format                      : Matroska
    Format version              : Version 4
    File size                   : 42.0 GiB
    Duration                    : 1 h 44 min
    Overall bit rate mode       : Variable
    Overall bit rate            : 57.4 Mb/s
    Movie name                  : IP Man 3 (2015) 4K HDR REMUX Latino - CMHDD
    Encoded date                : UTC 2021-01-09 19:41:56
    Writing application         : mkvmerge v51.0.0 ('I Wish') 64-bit
    Writing library             : libebml v1.4.0 + libmatroska v1.6.2

    Video
    ID                          : 1
    Format                      : HEVC
    Format/Info                 : High Efficiency Video Coding
    Format profile              : Main 10@L5.1@High
    HDR format                  : SMPTE ST 2086, HDR10 compatible
    Codec ID                    : V_MPEGH/ISO/HEVC
    Duration                    : 1 h 44 min
    Bit rate                    : 49.9 Mb/s
    Width                       : 3 840 pixels
    Height                      : 2 160 pixels
    Display aspect ratio        : 16:9
    Frame rate mode             : Constant
    Frame rate                  : 24.000 FPS
    Color space                 : YUV
    Chroma subsampling          : 4:2:0 (Type 2)
    Bit depth                   : 10 bits
    Bits/(Pixel*Frame)          : 0.251
    Stream size                 : 36.6 GiB (87%)
    Default                     : Yes
    Forced                      : No
    Color range                 : Limited
    Color primaries             : BT.2020
    Transfer characteristics    : PQ
    Matrix coefficients         : BT.2020 non-constant
    Mastering display color pri : BT.2020
    Mastering display luminance : min: 0.0001 cd/m2, max: 1000 cd/m2
    Maximum Content Light Level : 509 cd/m2
    Maximum Frame-Average Light : 432 cd/m2

    Audio #1
    ID                          : 2
    Format                      : DTS XLL
    Format/Info                 : Digital Theater Systems
    Commercial name             : DTS-HD Master Audio
    Codec ID                    : A_DTS
    Duration                    : 1 h 44 min
    Bit rate mode               : Variable
    Bit rate                    : 2 637 kb/s
    Channel(s)                  : 6 channels
    Channel layout              : C L R Ls Rs LFE
    Sampling rate               : 48.0 kHz
    Frame rate                  : 93.750 FPS (512 SPF)
    Bit depth                   : 16 bits
    Compression mode            : Lossless
    Stream size                 : 1.93 GiB (5%)
    Language                    : Spanish
    Default                     : Yes
    Forced                      : No

    Audio #2
    ID                          : 3
    Format                      : MLP FBA 16-ch
    Format/Info                 : Meridian Lossless Packing FBA with 16-channel presentation
    Commercial name             : Dolby TrueHD with Dolby Atmos
    Codec ID                    : A_TRUEHD
    Duration                    : 1 h 44 min
    Bit rate mode               : Variable
    Bit rate                    : 4 715 kb/s
    Maximum bit rate            : 7 788 kb/s
    Channel(s)                  : 8 channels
    Channel layout              : L R C LFE Ls Rs Lb Rb
    Sampling rate               : 48.0 kHz
    Frame rate                  : 1 200.000 FPS (40 SPF)
    Compression mode            : Lossless
    Stream size                 : 3.45 GiB (8%)
    Language                    : Chinese
    Default                     : No
    Forced                      : No
    Number of dynamic objects   : 11
    Bed channel count           : 1 channel
    Bed channel configuration   : LFE

    Text
    ID                          : 4
    Format                      : PGS
    Muxing mode                 : zlib
    Codec ID                    : S_HDMV/PGS
    Codec ID/Info               : Picture based subtitle format used on BDs/HD-DVDs
    Duration                    : 1 h 39 min
    Bit rate                    : 28.9 kb/s
    Count of elements           : 2318
    Stream size                 : 20.6 MiB (0%)
    Language                    : Spanish
    Default                     : No
    Forced                      : No

  • Peso: 42.0 GiB

Sinopsis

Una banda de criminales dirigidos por un constructor ambicioso intentan desalojar la escuela local pero el maestro Ip Man no está dispuesto a ceder. Paralelamente, un nuevo maestro de Wing Chun ha llegado a la ciudad.

Latino: DTS-HD MA 5.1 – Chino: TrueHD 7.1

Ficha técnica

Video trailer de la película

Enlaces de descarga

Rip de Bluray

Descargar IP Man 3 (2015) 4K HDR REMUX Latino – CMHDD


Aportes de DPeliculasHDmega la pass es:dpeliculashdmega.org Aportes de CinemaniaHD la pass es:cinemaniahdd.com
Guardado en : Acción , Drama , Historia

Películas relacionadas

  • El discurso del Rey (2010) 1080p Latino

    El discurso del Rey (2010) 1080p Latino

    2010
    El discurso del Rey (2010) 1080p Latino

    1h 58m 2010

    Descargar El discurso del Rey (2010) 1080p Latino. El duque de York se convirtió en rey de Gran Bretaña...

    Director: Tom Hooper

    Género: Drama

    Actores: Tony Earnshaw

  • El discurso del Rey (2010) Full HD 1080p Latino

    El discurso del Rey (2010) Full HD 1080p Latino

    2010
    El discurso del Rey (2010) Full HD 1080p Latino

    1h 58m 2010

    Descargar El discurso del Rey (2010) Full HD 1080p Latino. El duque de York se convirtió en rey de Gran...

    Director: Tom Hooper

    Género: Drama

    Actores: Tony Earnshaw

  • El discurso del Rey (2010) REMUX 1080p Latino

    El discurso del Rey (2010) REMUX 1080p Latino

    2010
    El discurso del Rey (2010) REMUX 1080p Latino

    1h 58m 2010

    Descargar El discurso del Rey (2010) REMUX 1080p Latino. El duque de York se convirtió en rey de Gran...

    Director: Tom Hooper

    Género: Drama

    Actores: Tony Earnshaw

  • 8 Mile (2002) REMUX 4K HDR Latino – CMHDD

    8 Mile (2002) REMUX 4K HDR Latino – CMHDD

    2002
    8 Mile (2002) REMUX 4K HDR Latino – CMHDD

    1h 50m 2002

    Detroit, 1995. La promesa de potencia industrial se ha transformado en un hervidero de conflictos económicos...

    Director: Michael J. Moore

    Género: Drama

    Actores: Xzibit

descargar IP Man 3 (2015) 4K HDR REMUX Latino – CMHDD 4K HDR 1080p gratis, IP Man 3 (2015) 4K HDR REMUX Latino – CMHDD 4K HDR mega 1 link, IP Man 3 (2015) 4K HDR REMUX Latino – CMHDD 4K HDR pelicula completa, descargar IP Man 3 (2015) 4K HDR REMUX Latino – CMHDD 4K HDR gratis en mega.

IP Man 3 (2015) 4K HDR REMUX Latino – CMHDD pelicula full hd, IP Man 3 (2015) 4K HDR REMUX Latino – CMHDD mega latino, IP Man 3 (2015) 4K HDR REMUX Latino – CMHDD 4k latino, IP Man 3 (2015) 4K HDR REMUX Latino – CMHDD pelicula completa, IP Man 3 (2015) 4K HDR REMUX Latino – CMHDD descargar gratis, descargar IP Man 3 (2015) 4K HDR REMUX Latino – CMHDD pelicula latino, IP Man 3 (2015) 4K HDR REMUX Latino – CMHDD 1 link mega, IP Man 3 (2015) 4K HDR REMUX Latino – CMHDD 1 link google drive, IP Man 3 (2015) 4K HDR REMUX Latino – CMHDD hd 1080p latino.
Comentarios 0