×

¿Problemas para descargar con Mozilla, EDGE? Deshabilita la opción "Abrir vinculos en una pestaña nueva" tal como lo muestra ésta imagen.

Ip Man (2008) Full HD 1080p Latino – CMHDD

539 vistas

Información de Ip Man (2008) Full HD 1080p Latino – CMHDD

Datos de la película

  • Calidad: Full 1080p
  • Audio: Español Latino AC3 2.0
  • Subtitulos: Español Latino SRT
  • Resolución: 1920x1080p
  • Formato: MKV
  • Codec: H.264
  • Encoder: Dracarys
  • Mediainfo: Clic para Mostrar Datos Ver
  • Format                      : Matroska
    Format version              : Version 4
    File size                   : 11.1 GiB
    Duration                    : 1 h 46 min
    Overall bit rate mode       : Variable
    Overall bit rate            : 15.0 Mb/s
    Movie name                  : Ip Man (2008) Full HD 1080p Latino
    Encoded date                : UTC 2020-05-13 03:27:08
    Writing application         : mkvmerge v46.0.0 ('No Deeper Escape') 64-bit
    Writing library             : libebml v1.3.10 + libmatroska v1.5.2

    Video
    ID                          : 1
    Format                      : AVC
    Format/Info                 : Advanced Video Codec
    Format profile              : High@L4.1
    Format settings             : CABAC / 4 Ref Frames
    Format settings, CABAC      : Yes
    Format settings, Reference  : 4 frames
    Codec ID                    : V_MPEG4/ISO/AVC
    Duration                    : 1 h 46 min
    Bit rate                    : 12.4 Mb/s
    Width                       : 1 920 pixels
    Height                      : 1 080 pixels
    Display aspect ratio        : 16:9
    Frame rate mode             : Constant
    Frame rate                  : 24.000 FPS
    Color space                 : YUV
    Chroma subsampling          : 4:2:0
    Bit depth                   : 8 bits
    Scan type                   : Progressive
    Bits/(Pixel*Frame)          : 0.249
    Stream size                 : 9.21 GiB (83%)
    Writing library             : x264 core 157 r2935 545de2f
    Encoding settings           : cabac=1 / ref=4 / deblock=1:0:0 / analyse=0x3:0x133 / me=tesa / subme=11 / psy=1 / psy_rd=1.00:0.00 / mixed_ref=1 / me_range=24 / chroma_me=1 / trellis=2 / 8x8dct=1 / cqm=0 / deadzone=21,11 / fast_pskip=0 / chroma_qp_offset=-2 / threads=34 / lookahead_threads=8 / sliced_threads=0 / nr=0 / decimate=1 / interlaced=0 / bluray_compat=0 / constrained_intra=0 / bframes=16 / b_pyramid=2 / b_adapt=2 / b_bias=0 / direct=3 / weightb=1 / open_gop=0 / weightp=2 / keyint=240 / keyint_min=24 / scenecut=40 / intra_refresh=0 / rc_lookahead=60 / rc=crf / mbtree=1 / crf=20.0 / qcomp=0.60 / qpmin=0 / qpmax=69 / qpstep=4 / vbv_maxrate=62500 / vbv_bufsize=78125 / crf_max=0.0 / nal_hrd=none / filler=0 / ip_ratio=1.40 / aq=1:1.00
    Default                     : Yes
    Forced                      : No
    Color range                 : Limited
    Color primaries             : BT.709
    Transfer characteristics    : BT.709
    Matrix coefficients         : BT.709

    Audio #1
    ID                          : 2
    Format                      : AC-3
    Format/Info                 : Audio Coding 3
    Commercial name             : Dolby Digital
    Codec ID                    : A_AC3
    Duration                    : 1 h 46 min
    Bit rate mode               : Constant
    Bit rate                    : 128 kb/s
    Channel(s)                  : 2 channels
    Channel layout              : L R
    Sampling rate               : 48.0 kHz
    Frame rate                  : 31.250 FPS (1536 SPF)
    Compression mode            : Lossy
    Stream size                 : 97.4 MiB (1%)
    Language                    : Spanish
    Service kind                : Complete Main
    Default                     : Yes
    Forced                      : No

    Audio #2
    ID                          : 3
    Format                      : DTS XLL
    Format/Info                 : Digital Theater Systems
    Commercial name             : DTS-HD Master Audio
    Codec ID                    : A_DTS
    Duration                    : 1 h 46 min
    Bit rate mode               : Variable
    Bit rate                    : 2 437 kb/s
    Channel(s)                  : 8 channels
    Channel layout              : C L R LFE Lb Rb Lss Rss
    Sampling rate               : 48.0 kHz
    Frame rate                  : 93.750 FPS (512 SPF)
    Bit depth                   : 16 bits
    Compression mode            : Lossless
    Stream size                 : 1.81 GiB (16%)
    Language                    : Chinese
    Default                     : No
    Forced                      : No

    Text
    ID                          : 4
    Format                      : UTF-8
    Codec ID                    : S_TEXT/UTF8
    Codec ID/Info               : UTF-8 Plain Text
    Duration                    : 1 h 41 min
    Bit rate                    : 40 b/s
    Count of elements           : 995
    Stream size                 : 30.3 KiB (0%)
    Language                    : Spanish
    Default                     : No
    Forced                      : No

  • Peso: 11.1 GiB

Sinopsis

Foshan, años treinta. Ip Man, respetado maestro de Wing Chun, combina el estudio de las artes marciales con los combates ocasionales a los que se ve forzado por parte de sus admiradores. Son tiempos de prosperidad a los que la guerra con Japón amenaza con poner fin. Con la ocupación estallará la tragedia e Ip Man se verá obligado a defender el honor de su pueblo. Ip Man (o también conocido como Yip Man), fue maestro y mentor de Bruce Lee.

 

Latino: AC3 2.0  –  Chino: DTS 5.1

Ficha técnica

Video trailer de la película

Enlaces de descarga

Rip de Bluray

Descargar Ip Man (2008) Full HD 1080p Latino – CMHDD




Aportes de DPeliculasHDmega la pass es:dpeliculashdmega.org Aportes de CinemaniaHD la pass es:cinemaniahdd.com

Películas relacionadas

  • Ajin: Semi-Humano (2017) AMZN WEB-DL 1080p Latino

    Ajin: Semi-Humano (2017) AMZN WEB-DL 1080p Latino

    2017
    Ajin: Semi-Humano (2017) AMZN WEB-DL 1080p Latino

    1h 50m 2017

    Descargar Ajin: Semi-Humano (2017) AMZN WEB-DL 1080p Latino. En el manga original, aparece una persona...

    Director: Toru Yamamoto

    Género: Acción

    Actores: Yuki Yamada

  • Ajin: Semi-Humano (2017) REMUX 1080p Latino

    Ajin: Semi-Humano (2017) REMUX 1080p Latino

    2017
    Ajin: Semi-Humano (2017) REMUX 1080p Latino

    1h 50m 2017

    Descargar Ajin: Semi-Humano (2017) REMUX 1080p Latino. En el manga original, aparece una persona inmortal...

    Director: Toru Yamamoto

    Género: Acción

    Actores: Yuki Yamada

  • Zola (2020) PLACEBO Full HD 1080p Latino

    Zola (2020) PLACEBO Full HD 1080p Latino

    2020
    Zola (2020) PLACEBO Full HD 1080p Latino

    1h 26m 2020

    Descargar Zola (2020) PLACEBO Full HD 1080p Latino. Una camarera accede a acompañar a una bailarina...

    Director: Sheri Davani

    Género: Comedia

    Actores: Ts Madison

descargar Ip Man (2008) Full HD 1080p Latino – CMHDD Full 1080p 1080p gratis, Ip Man (2008) Full HD 1080p Latino – CMHDD Full 1080p mega 1 link, Ip Man (2008) Full HD 1080p Latino – CMHDD Full 1080p pelicula completa, descargar Ip Man (2008) Full HD 1080p Latino – CMHDD Full 1080p gratis en mega.

Ip Man (2008) Full HD 1080p Latino – CMHDD pelicula full hd, Ip Man (2008) Full HD 1080p Latino – CMHDD mega latino, Ip Man (2008) Full HD 1080p Latino – CMHDD 4k latino, Ip Man (2008) Full HD 1080p Latino – CMHDD pelicula completa, Ip Man (2008) Full HD 1080p Latino – CMHDD descargar gratis, descargar Ip Man (2008) Full HD 1080p Latino – CMHDD pelicula latino, Ip Man (2008) Full HD 1080p Latino – CMHDD 1 link mega, Ip Man (2008) Full HD 1080p Latino – CMHDD 1 link google drive, Ip Man (2008) Full HD 1080p Latino – CMHDD hd 1080p latino.
Comentarios 1
  • ocpgaiden - 06 septiembre, 2020

    Gracias y saludos