×

¿Problemas para descargar con Mozilla, EDGE? Deshabilita la opción "Abrir vinculos en una pestaña nueva" tal como lo muestra ésta imagen.

IP Man (2008) 4K HDR REMUX Latino – CMHDD

300 vistas

Información de IP Man (2008) 4K HDR REMUX Latino – CMHDD

Datos de la película

  • Calidad: 4K HDR
  • Audio: Se especifica abajo de la Sinopsis
  • Subtitulos: Español Latino PGS
  • Resolución: 3840x2160p
  • Formato: MKV
  • Codec: HEVC
  • Encoder: Dracarys
  • Mediainfo: Clic para Mostrar Datos Ver
  • Format                      : Matroska
    Format version              : Version 4
    File size                   : 41.4 GiB
    Duration                    : 1 h 46 min
    Overall bit rate mode       : Variable
    Overall bit rate            : 55.6 Mb/s
    Movie name                  : IP Man (2008) 4K HDR REMUX Latino - CMHDD
    Encoded date                : UTC 2021-01-09 18:08:48
    Writing application         : mkvmerge v51.0.0 ('I Wish') 64-bit
    Writing library             : libebml v1.4.0 + libmatroska v1.6.2

    Video
    ID                          : 1
    Format                      : HEVC
    Format/Info                 : High Efficiency Video Coding
    Format profile              : Main 10@L5.1@High
    HDR format                  : SMPTE ST 2086, HDR10 compatible
    Codec ID                    : V_MPEGH/ISO/HEVC
    Duration                    : 1 h 46 min
    Bit rate                    : 50.0 Mb/s
    Width                       : 3 840 pixels
    Height                      : 2 160 pixels
    Display aspect ratio        : 16:9
    Frame rate mode             : Constant
    Frame rate                  : 24.000 FPS
    Color space                 : YUV
    Chroma subsampling          : 4:2:0 (Type 2)
    Bit depth                   : 10 bits
    Bits/(Pixel*Frame)          : 0.251
    Stream size                 : 37.2 GiB (90%)
    Default                     : Yes
    Forced                      : No
    Color range                 : Limited
    Color primaries             : BT.2020
    Transfer characteristics    : PQ
    Matrix coefficients         : BT.2020 non-constant
    Mastering display color pri : BT.2020
    Mastering display luminance : min: 0.0001 cd/m2, max: 1000 cd/m2
    Maximum Content Light Level : 462 cd/m2
    Maximum Frame-Average Light : 284 cd/m2

    Audio #1
    ID                          : 2
    Format                      : AC-3
    Format/Info                 : Audio Coding 3
    Commercial name             : Dolby Digital
    Codec ID                    : A_AC3
    Duration                    : 1 h 46 min
    Bit rate mode               : Constant
    Bit rate                    : 384 kb/s
    Channel(s)                  : 2 channels
    Channel layout              : L R
    Sampling rate               : 48.0 kHz
    Frame rate                  : 31.250 FPS (1536 SPF)
    Compression mode            : Lossy
    Stream size                 : 293 MiB (1%)
    Language                    : Spanish
    Service kind                : Complete Main
    Default                     : Yes
    Forced                      : No

    Audio #2
    ID                          : 3
    Format                      : MLP FBA 16-ch
    Format/Info                 : Meridian Lossless Packing FBA with 16-channel presentation
    Commercial name             : Dolby TrueHD with Dolby Atmos
    Codec ID                    : A_TRUEHD
    Duration                    : 1 h 46 min
    Bit rate mode               : Variable
    Bit rate                    : 5 176 kb/s
    Maximum bit rate            : 7 488 kb/s
    Channel(s)                  : 8 channels
    Channel layout              : L R C LFE Ls Rs Lb Rb
    Sampling rate               : 48.0 kHz
    Frame rate                  : 1 200.000 FPS (40 SPF)
    Compression mode            : Lossless
    Stream size                 : 3.85 GiB (9%)
    Language                    : Chinese
    Default                     : No
    Forced                      : No
    Number of dynamic objects   : 11
    Bed channel count           : 1 channel
    Bed channel configuration   : LFE

    Text
    ID                          : 4
    Format                      : PGS
    Muxing mode                 : zlib
    Codec ID                    : S_HDMV/PGS
    Codec ID/Info               : Picture based subtitle format used on BDs/HD-DVDs
    Duration                    : 1 h 41 min
    Bit rate                    : 28.9 kb/s
    Count of elements           : 2030
    Stream size                 : 21.0 MiB (0%)
    Language                    : Spanish
    Default                     : No
    Forced                      : No
     

  • Peso: 41.4 GiB

Sinopsis

Foshan, años treinta. Ip Man, respetado maestro de Wing Chun, combina el estudio de las artes marciales con los combates ocasionales a los que se ve forzado por parte de sus admiradores. Son tiempos de prosperidad a los que la guerra con Japón amenaza con poner fin. Con la ocupación estallará la tragedia e Ip Man se verá obligado a defender el honor de su pueblo. Ip Man (o también conocido como Yip Man), fue maestro y mentor de Bruce Lee.

Latino: AC3 2.0 – Chino: TrueHD 7.1

Ficha técnica

Video trailer de la película

Enlaces de descarga

Rip de Bluray

Descargar IP Man (2008) 4K HDR REMUX Latino – CMHDD


Aportes de DPeliculasHDmega la pass es:dpeliculashdmega.org Aportes de CinemaniaHD la pass es:cinemaniahdd.com
Guardado en : Acción , Drama , Historia

Películas relacionadas

descargar IP Man (2008) 4K HDR REMUX Latino – CMHDD 4K HDR 1080p gratis, IP Man (2008) 4K HDR REMUX Latino – CMHDD 4K HDR mega 1 link, IP Man (2008) 4K HDR REMUX Latino – CMHDD 4K HDR pelicula completa, descargar IP Man (2008) 4K HDR REMUX Latino – CMHDD 4K HDR gratis en mega.

IP Man (2008) 4K HDR REMUX Latino – CMHDD pelicula full hd, IP Man (2008) 4K HDR REMUX Latino – CMHDD mega latino, IP Man (2008) 4K HDR REMUX Latino – CMHDD 4k latino, IP Man (2008) 4K HDR REMUX Latino – CMHDD pelicula completa, IP Man (2008) 4K HDR REMUX Latino – CMHDD descargar gratis, descargar IP Man (2008) 4K HDR REMUX Latino – CMHDD pelicula latino, IP Man (2008) 4K HDR REMUX Latino – CMHDD 1 link mega, IP Man (2008) 4K HDR REMUX Latino – CMHDD 1 link google drive, IP Man (2008) 4K HDR REMUX Latino – CMHDD hd 1080p latino.
Comentarios 0