×

¿Problemas para descargar con Mozilla, EDGE? Deshabilita la opción "Abrir vinculos en una pestaña nueva" tal como lo muestra ésta imagen.

Ip Man 2 (2010) REMUX 1080p Latino – CMHDD

384 vistas

Información de Ip Man 2 (2010) REMUX 1080p Latino – CMHDD

Datos de la película

  • Calidad: Full 1080p
  • Audio: Se especifica abajo de la Sinopsis
  • Subtitulos: Español Latino SRT
  • Resolución: 1920x1080p
  • Formato: MKV
  • Codec: H.264
  • Encoder: Dracarys
  • Mediainfo: Clic para Mostrar Datos Ver
  • Format                      : Matroska
    Format version              : Version 4
    File size                   : 19.9 GiB
    Duration                    : 1 h 48 min
    Overall bit rate mode       : Variable
    Overall bit rate            : 26.3 Mb/s
    Movie name                  : Ip Man 2 (2010) REMUX 1080p Latino - CMHDD
    Encoded date                : UTC 2020-05-13 07:19:29
    Writing application         : mkvmerge v46.0.0 ('No Deeper Escape') 64-bit
    Writing library             : libebml v1.3.10 + libmatroska v1.5.2

    Video
    ID                          : 1
    Format                      : AVC
    Format/Info                 : Advanced Video Codec
    Format profile              : High@L4.1
    Format settings             : CABAC / 4 Ref Frames
    Format settings, CABAC      : Yes
    Format settings, Reference  : 4 frames
    Codec ID                    : V_MPEG4/ISO/AVC
    Duration                    : 1 h 48 min
    Bit rate mode               : Variable
    Bit rate                    : 23.4 Mb/s
    Maximum bit rate            : 24.0 Mb/s
    Width                       : 1 920 pixels
    Height                      : 1 080 pixels
    Display aspect ratio        : 16:9
    Frame rate mode             : Constant
    Frame rate                  : 24.000 FPS
    Color space                 : YUV
    Chroma subsampling          : 4:2:0
    Bit depth                   : 8 bits
    Scan type                   : Progressive
    Bits/(Pixel*Frame)          : 0.471
    Stream size                 : 17.7 GiB (89%)
    Default                     : Yes
    Forced                      : No
    Color range                 : Limited
    Color primaries             : BT.709
    Transfer characteristics    : BT.709
    Matrix coefficients         : BT.709

    Audio #1
    ID                          : 2
    Format                      : AC-3
    Format/Info                 : Audio Coding 3
    Commercial name             : Dolby Digital
    Codec ID                    : A_AC3
    Duration                    : 1 h 48 min
    Bit rate mode               : Constant
    Bit rate                    : 256 kb/s
    Channel(s)                  : 2 channels
    Channel layout              : L R
    Sampling rate               : 48.0 kHz
    Frame rate                  : 31.250 FPS (1536 SPF)
    Compression mode            : Lossy
    Delay relative to video     : 500 ms
    Stream size                 : 198 MiB (1%)
    Language                    : Spanish
    Service kind                : Complete Main
    Default                     : No
    Forced                      : No

    Audio #2
    ID                          : 3
    Format                      : DTS XLL
    Format/Info                 : Digital Theater Systems
    Commercial name             : DTS-HD Master Audio
    Codec ID                    : A_DTS
    Duration                    : 1 h 48 min
    Bit rate mode               : Variable
    Bit rate                    : 2 605 kb/s
    Channel(s)                  : 8 channels
    Channel layout              : C L R LFE Lb Rb Lss Rss
    Sampling rate               : 48.0 kHz
    Frame rate                  : 93.750 FPS (512 SPF)
    Bit depth                   : 16 bits
    Compression mode            : Lossless
    Stream size                 : 1.97 GiB (10%)
    Language                    : Chinese
    Default                     : Yes
    Forced                      : No

    Text
    ID                          : 4
    Format                      : UTF-8
    Codec ID                    : S_TEXT/UTF8
    Codec ID/Info               : UTF-8 Plain Text
    Duration                    : 1 h 44 min
    Bit rate                    : 43 b/s
    Count of elements           : 1150
    Stream size                 : 33.1 KiB (0%)
    Language                    : Spanish
    Default                     : Yes
    Forced                      : No

    Menu
    00:00:00.000                : en:Chapter 1
    00:06:24.458                : en:Chapter 2
    00:13:42.375                : en:Chapter 3
    00:20:08.333                : en:Chapter 4
    00:29:15.333                : en:Chapter 5
    00:35:17.416                : en:Chapter 6
    00:42:39.500                : en:Chapter 7
    00:50:46.708                : en:Chapter 8
    00:55:07.833                : en:Chapter 9
    01:03:11.375                : en:Chapter 10
    01:12:21.208                : en:Chapter 11
    01:17:21.791                : en:Chapter 12
    01:23:56.791                : en:Chapter 13
    01:30:05.791                : en:Chapter 14
    01:36:41.000                : en:Chapter 15

  • Peso: 19.9 GiB

Sinopsis

En esta secuela, Ip Man (Donnie Yen), llega a Hong-Kong y abre una escuela de Wing Chun, pero pronto entrará en conflicto con un maestro local de Hung Fist llamado Hung Jan-nam, quien es interpretado por Sammo Hung. Aunque, Ip Man, últimamente ha sido desafiado por los ingleses que gobiernan el territorio, las tensiones entre los dos maestros de Kung fu sigue incrementando, y eso hace que ellos se vean forzados a batirse a duelo.

 

 

Latino: AC3 2.0  –  Chino: DTS 5.1

Ficha técnica

Video trailer de la película

Enlaces de descarga

Rip de Bluray

Descargar Ip Man 2 (2010) REMUX 1080p Latino – CMHDD




Aportes de DPeliculasHDmega la pass es:dpeliculashdmega.org Aportes de CinemaniaHD la pass es:cinemaniahdd.com
Guardado en : Acción , Drama , Historia , Remux

Películas relacionadas

  • Wire Room (2022) HD 1080p Latino

    Wire Room (2022) HD 1080p Latino

    2022
    Wire Room (2022) HD 1080p Latino

    1h 37m 2022

    Descargar Wire Room (2022) HD 1080p Latino. Mientras está de servicio en la sala de cables, un agente...

    Director: Matt Eskandari

    Género: Acción

    Actores: Texas Battle

  • Wire Room (2022) PLACEBO Full HD 1080p Latino

    Wire Room (2022) PLACEBO Full HD 1080p Latino

    2022
    Wire Room (2022) PLACEBO Full HD 1080p Latino

    1h 37m 2022

    Descargar Wire Room (2022) PLACEBO Full HD 1080p Latino. Mientras está de servicio en la sala de cables,...

    Director: Matt Eskandari

    Género: Acción

    Actores: Texas Battle

  • Wire Room (2022) REMUX 1080p Latino

    Wire Room (2022) REMUX 1080p Latino

    2022
    Wire Room (2022) REMUX 1080p Latino

    1h 37m 2022

    Descargar Wire Room (2022) REMUX 1080p Latino. Mientras está de servicio en la sala de cables, un agente...

    Director: Matt Eskandari

    Género: Acción

    Actores: Texas Battle

  • Alarido (2022) REMUX 1080p Latino

    Alarido (2022) REMUX 1080p Latino

    2022
    Alarido (2022) REMUX 1080p Latino

    1h 29m 2022

    Descargar Alarido (2022) REMUX 1080p Latino. Una joven madre soltera es cautiva junto con sus dos hijos...

    Director: D.J. Caruso

    Género: Remux

    Actores: Vincent Gallo

  • After: Amor infinito (2022) AMZN WEB-DL 1080p Latino

    After: Amor infinito (2022) AMZN WEB-DL 1080p Latino

    2022
    After: Amor infinito (2022) AMZN WEB-DL 1080p Latino

    1h 35m 2022

    Descargar After: Amor infinito (2022) AMZN WEB-DL 1080p Latino. El amor de Tessa y Hardin nunca ha sido...

    Director: Castille Landon

    Género: Drama

    Actores: Velizar Nikolaev Biney

descargar Ip Man 2 (2010) REMUX 1080p Latino – CMHDD Full 1080p 1080p gratis, Ip Man 2 (2010) REMUX 1080p Latino – CMHDD Full 1080p mega 1 link, Ip Man 2 (2010) REMUX 1080p Latino – CMHDD Full 1080p pelicula completa, descargar Ip Man 2 (2010) REMUX 1080p Latino – CMHDD Full 1080p gratis en mega.

Ip Man 2 (2010) REMUX 1080p Latino – CMHDD pelicula full hd, Ip Man 2 (2010) REMUX 1080p Latino – CMHDD mega latino, Ip Man 2 (2010) REMUX 1080p Latino – CMHDD 4k latino, Ip Man 2 (2010) REMUX 1080p Latino – CMHDD pelicula completa, Ip Man 2 (2010) REMUX 1080p Latino – CMHDD descargar gratis, descargar Ip Man 2 (2010) REMUX 1080p Latino – CMHDD pelicula latino, Ip Man 2 (2010) REMUX 1080p Latino – CMHDD 1 link mega, Ip Man 2 (2010) REMUX 1080p Latino – CMHDD 1 link google drive, Ip Man 2 (2010) REMUX 1080p Latino – CMHDD hd 1080p latino.
Comentarios 1
  • ocpgaiden - 06 septiembre, 2020

    Gracias y saludos