×

¿Problemas para descargar con Mozilla, EDGE? Deshabilita la opción "Abrir vinculos en una pestaña nueva" tal como lo muestra ésta imagen.

Ip Man 2 (2010) HD 1080p Latino – CMHDD

394 vistas

Información de Ip Man 2 (2010) HD 1080p Latino – CMHDD

Datos de la película

  • Calidad: 1080p
  • Audio: Se especifica abajo de la Sinopsis
  • Subtitulos: Español Latino SRT
  • Resolución: 1920x1080p
  • Formato: MKV
  • Codec: H.264
  • Encoder: Dracarys
  • Mediainfo: Clic para Mostrar Datos Ver
  • Format                      : Matroska
    Format version              : Version 4
    File size                   : 2.91 GiB
    Duration                    : 1 h 48 min
    Overall bit rate            : 3 858 kb/s
    Movie name                  : Ip Man 2 (2010) HD 1080p Latino - CMHDD
    Encoded date                : UTC 2020-05-13 07:11:48
    Writing application         : mkvmerge v46.0.0 ('No Deeper Escape') 64-bit
    Writing library             : libebml v1.3.10 + libmatroska v1.5.2 / Lavf58.20.100

    Video
    ID                          : 1
    Format                      : AVC
    Format/Info                 : Advanced Video Codec
    Format profile              : High@L4.1
    Format settings             : CABAC / 4 Ref Frames
    Format settings, CABAC      : Yes
    Format settings, Reference  : 4 frames
    Codec ID                    : V_MPEG4/ISO/AVC
    Duration                    : 1 h 48 min
    Bit rate                    : 3 000 kb/s
    Width                       : 1 920 pixels
    Height                      : 1 080 pixels
    Display aspect ratio        : 16:9
    Frame rate mode             : Constant
    Frame rate                  : 24.000 FPS
    Color space                 : YUV
    Chroma subsampling          : 4:2:0
    Bit depth                   : 8 bits
    Scan type                   : Progressive
    Bits/(Pixel*Frame)          : 0.060
    Stream size                 : 2.24 GiB (77%)
    Writing library             : x264 core 157 r2935 545de2f
    Encoding settings           : cabac=1 / ref=3 / deblock=1:0:0 / analyse=0x3:0x113 / me=hex / subme=7 / psy=1 / psy_rd=1.00:0.00 / mixed_ref=1 / me_range=16 / chroma_me=1 / trellis=1 / 8x8dct=1 / cqm=0 / deadzone=21,11 / fast_pskip=1 / chroma_qp_offset=-2 / threads=34 / lookahead_threads=5 / sliced_threads=0 / nr=0 / decimate=1 / interlaced=0 / bluray_compat=0 / constrained_intra=0 / bframes=3 / b_pyramid=2 / b_adapt=1 / b_bias=0 / direct=1 / weightb=1 / open_gop=0 / weightp=2 / keyint=240 / keyint_min=24 / scenecut=40 / intra_refresh=0 / rc_lookahead=40 / rc=abr / mbtree=1 / bitrate=3000 / ratetol=1.0 / qcomp=0.60 / qpmin=0 / qpmax=69 / qpstep=4 / vbv_maxrate=62500 / vbv_bufsize=78125 / nal_hrd=none / filler=0 / ip_ratio=1.40 / aq=1:1.00
    Default                     : Yes
    Forced                      : No
    Color range                 : Limited
    Color primaries             : BT.709
    Transfer characteristics    : BT.709
    Matrix coefficients         : BT.709

    Audio #1
    ID                          : 2
    Format                      : AC-3
    Format/Info                 : Audio Coding 3
    Commercial name             : Dolby Digital
    Codec ID                    : A_AC3
    Duration                    : 1 h 48 min
    Bit rate mode               : Constant
    Bit rate                    : 256 kb/s
    Channel(s)                  : 2 channels
    Channel layout              : L R
    Sampling rate               : 48.0 kHz
    Frame rate                  : 31.250 FPS (1536 SPF)
    Compression mode            : Lossy
    Delay relative to video     : 500 ms
    Stream size                 : 198 MiB (7%)
    Language                    : Spanish
    Service kind                : Complete Main
    Default                     : Yes
    Forced                      : No

    Audio #2
    ID                          : 3
    Format                      : AC-3
    Format/Info                 : Audio Coding 3
    Commercial name             : Dolby Digital
    Codec ID                    : A_AC3
    Duration                    : 1 h 48 min
    Bit rate mode               : Constant
    Bit rate                    : 640 kb/s
    Channel(s)                  : 6 channels
    Channel layout              : L R C LFE Ls Rs
    Sampling rate               : 48.0 kHz
    Frame rate                  : 31.250 FPS (1536 SPF)
    Compression mode            : Lossy
    Stream size                 : 495 MiB (17%)
    Language                    : English
    Service kind                : Complete Main
    Default                     : No
    Forced                      : No

    Text
    ID                          : 4
    Format                      : UTF-8
    Codec ID                    : S_TEXT/UTF8
    Codec ID/Info               : UTF-8 Plain Text
    Duration                    : 1 h 44 min
    Bit rate                    : 43 b/s
    Count of elements           : 1150
    Stream size                 : 33.1 KiB (0%)
    Language                    : Spanish
    Default                     : Yes
    Forced                      : No

    Menu
    00:00:00.000                : :Chapter 1
    00:06:24.458                : :Chapter 2
    00:13:42.417                : :Chapter 3
    00:20:08.375                : :Chapter 4
    00:29:15.333                : :Chapter 5
    00:35:17.458                : :Chapter 6
    00:42:39.542                : :Chapter 7
    00:50:46.750                : :Chapter 8
    00:55:07.833                : :Chapter 9
    01:03:11.375                : :Chapter 10
    01:12:21.250                : :Chapter 11
    01:17:21.792                : :Chapter 12
    01:23:56.833                : :Chapter 13
    01:30:05.833                : :Chapter 14
    01:36:41.000                : :Chapter 15

  • Peso: 2.91 GiB

Sinopsis

En esta secuela, Ip Man (Donnie Yen), llega a Hong-Kong y abre una escuela de Wing Chun, pero pronto entrará en conflicto con un maestro local de Hung Fist llamado Hung Jan-nam, quien es interpretado por Sammo Hung. Aunque, Ip Man, últimamente ha sido desafiado por los ingleses que gobiernan el territorio, las tensiones entre los dos maestros de Kung fu sigue incrementando, y eso hace que ellos se vean forzados a batirse a duelo.

 

 

Latino: AC3 2.0  –  Chino: AC3 5.1

Ficha técnica

Video trailer de la película

Enlaces de descarga

Rip de Bluray

Descargar Ip Man 2 (2010) HD 1080p Latino – CMHDD




Aportes de DPeliculasHDmega la pass es:dpeliculashdmega.org Aportes de CinemaniaHD la pass es:cinemaniahdd.com
Guardado en : Acción , Drama , HD 1080p , Historia

Películas relacionadas

descargar Ip Man 2 (2010) HD 1080p Latino – CMHDD 1080p 1080p gratis, Ip Man 2 (2010) HD 1080p Latino – CMHDD 1080p mega 1 link, Ip Man 2 (2010) HD 1080p Latino – CMHDD 1080p pelicula completa, descargar Ip Man 2 (2010) HD 1080p Latino – CMHDD 1080p gratis en mega.

Ip Man 2 (2010) HD 1080p Latino – CMHDD pelicula full hd, Ip Man 2 (2010) HD 1080p Latino – CMHDD mega latino, Ip Man 2 (2010) HD 1080p Latino – CMHDD 4k latino, Ip Man 2 (2010) HD 1080p Latino – CMHDD pelicula completa, Ip Man 2 (2010) HD 1080p Latino – CMHDD descargar gratis, descargar Ip Man 2 (2010) HD 1080p Latino – CMHDD pelicula latino, Ip Man 2 (2010) HD 1080p Latino – CMHDD 1 link mega, Ip Man 2 (2010) HD 1080p Latino – CMHDD 1 link google drive, Ip Man 2 (2010) HD 1080p Latino – CMHDD hd 1080p latino.
Comentarios 0