×

¿Problemas para descargar con Mozilla, EDGE? Deshabilita la opción "Abrir vinculos en una pestaña nueva" tal como lo muestra ésta imagen.

IP Man 2 (2010) 4K HDR REMUX Latino – CMHDD

272 vistas

Información de IP Man 2 (2010) 4K HDR REMUX Latino – CMHDD

Datos de la película

  • Calidad: 4K HDR
  • Audio: Se especifica abajo de la Sinopsis
  • Subtitulos: Español Latino PGS
  • Resolución: 3840x2160p
  • Formato: MKV
  • Codec: HEVC
  • Encoder: Dracarys
  • Mediainfo: Clic para Mostrar Datos Ver
  • Format                      : Matroska
    Format version              : Version 4
    File size                   : 45.3 GiB
    Duration                    : 1 h 48 min
    Overall bit rate mode       : Variable
    Overall bit rate            : 60.0 Mb/s
    Movie name                  : IP Man 2 (2010) 4K HDR REMUX Latino - CMHDD
    Encoded date                : UTC 2021-01-09 19:07:19
    Writing application         : mkvmerge v51.0.0 ('I Wish') 64-bit
    Writing library             : libebml v1.4.0 + libmatroska v1.6.2

    Video
    ID                          : 1
    Format                      : HEVC
    Format/Info                 : High Efficiency Video Coding
    Format profile              : Main 10@L5.1@High
    HDR format                  : SMPTE ST 2086, HDR10 compatible
    Codec ID                    : V_MPEGH/ISO/HEVC
    Duration                    : 1 h 48 min
    Bit rate                    : 52.5 Mb/s
    Width                       : 3 840 pixels
    Height                      : 2 160 pixels
    Display aspect ratio        : 16:9
    Frame rate mode             : Constant
    Frame rate                  : 24.000 FPS
    Color space                 : YUV
    Chroma subsampling          : 4:2:0 (Type 2)
    Bit depth                   : 10 bits
    Bits/(Pixel*Frame)          : 0.264
    Stream size                 : 39.7 GiB (87%)
    Default                     : Yes
    Forced                      : No
    Color range                 : Limited
    Color primaries             : BT.2020
    Transfer characteristics    : PQ
    Matrix coefficients         : BT.2020 non-constant
    Mastering display color pri : BT.2020
    Mastering display luminance : min: 0.0001 cd/m2, max: 1000 cd/m2
    Maximum Content Light Level : 399 cd/m2
    Maximum Frame-Average Light : 261 cd/m2

    Audio #1
    ID                          : 2
    Format                      : DTS XLL
    Format/Info                 : Digital Theater Systems
    Commercial name             : DTS-HD Master Audio
    Codec ID                    : A_DTS
    Duration                    : 1 h 48 min
    Bit rate mode               : Variable
    Bit rate                    : 2 411 kb/s
    Channel(s)                  : 6 channels
    Channel layout              : C L R Ls Rs LFE
    Sampling rate               : 48.0 kHz
    Frame rate                  : 93.750 FPS (512 SPF)
    Bit depth                   : 16 bits
    Compression mode            : Lossless
    Stream size                 : 1.82 GiB (4%)
    Language                    : Spanish
    Default                     : Yes
    Forced                      : No

    Audio #2
    ID                          : 3
    Format                      : MLP FBA 16-ch
    Format/Info                 : Meridian Lossless Packing FBA with 16-channel presentation
    Commercial name             : Dolby TrueHD with Dolby Atmos
    Codec ID                    : A_TRUEHD
    Duration                    : 1 h 48 min
    Bit rate mode               : Variable
    Bit rate                    : 5 000 kb/s
    Maximum bit rate            : 7 242 kb/s
    Channel(s)                  : 8 channels
    Channel layout              : L R C LFE Ls Rs Lb Rb
    Sampling rate               : 48.0 kHz
    Frame rate                  : 1 200.000 FPS (40 SPF)
    Compression mode            : Lossless
    Stream size                 : 3.78 GiB (8%)
    Language                    : Chinese
    Default                     : No
    Forced                      : No
    Number of dynamic objects   : 11
    Bed channel count           : 1 channel
    Bed channel configuration   : LFE

    Text
    ID                          : 4
    Format                      : PGS
    Muxing mode                 : zlib
    Codec ID                    : S_HDMV/PGS
    Codec ID/Info               : Picture based subtitle format used on BDs/HD-DVDs
    Duration                    : 1 h 44 min
    Bit rate                    : 33.5 kb/s
    Count of elements           : 2202
    Stream size                 : 24.9 MiB (0%)
    Language                    : Spanish
    Default                     : No
    Forced                      : No

  • Peso: 45.3 GiB

Sinopsis

En esta secuela, Ip Man (Donnie Yen), llega a Hong-Kong y abre una escuela de Wing Chun, pero pronto entrará en conflicto con un maestro local de Hung Fist llamado Hung Jan-nam, quien es interpretado por Sammo Hung. Aunque, Ip Man, últimamente ha sido desafiado por los ingleses que gobiernan el territorio, las tensiones entre los dos maestros de Kung fu sigue incrementando, y eso hace que ellos se vean forzados a batirse a duelo.

Latino: DTS-HD MA 5.1 – Chino: TrueHD 7.1

Ficha técnica

Video trailer de la película

Enlaces de descarga

Rip de Bluray

Descargar IP Man 2 (2010) 4K HDR REMUX Latino – CMHDD


Aportes de DPeliculasHDmega la pass es:dpeliculashdmega.org Aportes de CinemaniaHD la pass es:cinemaniahdd.com
Guardado en : Acción , Drama , Historia

Películas relacionadas

descargar IP Man 2 (2010) 4K HDR REMUX Latino – CMHDD 4K HDR 1080p gratis, IP Man 2 (2010) 4K HDR REMUX Latino – CMHDD 4K HDR mega 1 link, IP Man 2 (2010) 4K HDR REMUX Latino – CMHDD 4K HDR pelicula completa, descargar IP Man 2 (2010) 4K HDR REMUX Latino – CMHDD 4K HDR gratis en mega.

IP Man 2 (2010) 4K HDR REMUX Latino – CMHDD pelicula full hd, IP Man 2 (2010) 4K HDR REMUX Latino – CMHDD mega latino, IP Man 2 (2010) 4K HDR REMUX Latino – CMHDD 4k latino, IP Man 2 (2010) 4K HDR REMUX Latino – CMHDD pelicula completa, IP Man 2 (2010) 4K HDR REMUX Latino – CMHDD descargar gratis, descargar IP Man 2 (2010) 4K HDR REMUX Latino – CMHDD pelicula latino, IP Man 2 (2010) 4K HDR REMUX Latino – CMHDD 1 link mega, IP Man 2 (2010) 4K HDR REMUX Latino – CMHDD 1 link google drive, IP Man 2 (2010) 4K HDR REMUX Latino – CMHDD hd 1080p latino.
Comentarios 0