IP Man 2 (2010) 4K HDR BDRip Latino – CMHDD

451 vistas
1 estrella2 estrellas3 estrellas4 estrellas5 estrellas (1 votos, promedio: 5,00 de 5)
Cargando...

Información de IP Man 2 (2010) 4K HDR BDRip Latino – CMHDD

Datos de la película

  • Calidad: Full 1080p
  • Audio: Se especifica abajo de la Sinopsis
  • Subtitulos: Español Latino PGS
  • Resolución: 3840x1620p
  • Formato: MKV
  • Codec: H.264
  • Encoder: Dracarys
  • Mediainfo: Clic para Mostrar Datos Ver
  • Format                      : Matroska
    Format version              : Version 4
    File size                   : 27.6 GiB
    Duration                    : 1 h 48 min
    Overall bit rate mode       : Variable
    Overall bit rate            : 36.5 Mb/s
    Movie name                  : IP Man 2 (2010) 4K HDR BDRip Latino - CMHDD
    Encoded date                : UTC 2021-01-09 19:24:21
    Writing application         : mkvmerge v51.0.0 ('I Wish') 64-bit
    Writing library             : libebml v1.4.0 + libmatroska v1.6.2

    Video
    ID                          : 1
    Format                      : HEVC
    Format/Info                 : High Efficiency Video Coding
    Format profile              : Main 10@L5.1@High
    HDR format                  : SMPTE ST 2086, HDR10 compatible
    Codec ID                    : V_MPEGH/ISO/HEVC
    Duration                    : 1 h 48 min
    Bit rate                    : 29.0 Mb/s
    Width                       : 3 840 pixels
    Height                      : 1 620 pixels
    Display aspect ratio        : 2.40:1
    Frame rate mode             : Constant
    Frame rate                  : 24.000 FPS
    Color space                 : YUV
    Chroma subsampling          : 4:2:0 (Type 2)
    Bit depth                   : 10 bits
    Bits/(Pixel*Frame)          : 0.194
    Stream size                 : 21.9 GiB (79%)
    Writing library             : x265 3.0_Au+10-74a8672ea4f7:[Windows][GCC 8.2.1][64 bit] 10bit
    Encoding settings           : cpuid=1111039 / frame-threads=6 / numa-pools=24,24,24,24 / wpp / no-pmode / no-pme / no-psnr / no-ssim / log-level=2 / input-csp=1 / input-res=3840x1620 / interlace=0 / total-frames=0 / level-idc=51 / high-tier=1 / uhd-bd=0 / ref=3 / no-allow-non-conformance / repeat-headers / annexb / aud / hrd / info / hash=0 / no-temporal-layers / no-open-gop / min-keyint=1 / keyint=24 / gop-lookahead=0 / bframes=4 / b-adapt=2 / b-pyramid / bframe-bias=0 / rc-lookahead=25 / lookahead-slices=4 / scenecut=40 / radl=0 / no-splice / no-intra-refresh / ctu=64 / min-cu-size=8 / no-rect / no-amp / max-tu-size=32 / tu-inter-depth=1 / tu-intra-depth=1 / limit-tu=0 / rdoq-level=0 / dynamic-rd=0.00 / no-ssim-rd / signhide / no-tskip / nr-intra=0 / nr-inter=0 / no-constrained-intra / strong-intra-smoothing / max-merge=2 / limit-refs=3 / no-limit-modes / me=1 / subme=2 / merange=57 / temporal-mvp / weightp / no-weightb / no-analyze-src-pics / deblock=0:0 / no-sao / no-sao-non-deblock / rd=3 / no-early-skip / rskip / no-fast-intra / no-tskip-fast / no-cu-lossless / no-b-intra / no-splitrd-skip / rdpenalty=0 / psy-rd=2.00 / psy-rdoq=0.00 / no-rd-refine / no-lossless / cbqpoffs=0 / crqpoffs=0 / rc=crf / crf=16.0 / qcomp=0.60 / qpstep=4 / stats-write=0 / stats-read=0 / vbv-maxrate=160000 / vbv-bufsize=160000 / vbv-init=0.9 / crf-max=0.0 / crf-min=0.0 / ipratio=1.40 / pbratio=1.30 / aq-mode=1 / aq-strength=1.00 / cutree / zone-count=0 / no-strict-cbr / qg-size=32 / no-rc-grain / qpmax=69 / qpmin=0 / no-const-vbv / sar=1 / overscan=0 / videoformat=5 / range=0 / colorprim=9 / transfer=16 / colormatrix=9 / chromaloc=1 / chromaloc-top=2 / chromaloc-bottom=2 / display-window=0 / master-display=G(8500,39850)B(6550,2300)R(35400,14600)WP(15635,16450)L(10000000,01) / max-cll=399,261 / min-luma=0 / max-luma=1023 / log2-max-poc-lsb=8 / vui-timing-info / vui-hrd-info / slices=1 / opt-qp-pps / opt-ref-list-length-pps / no-multi-pass-opt-rps / scenecut-bias=0.05 / no-opt-cu-delta-qp / no-aq-motion / hdr / hdr-opt / no-dhdr10-opt / no-idr-recovery-sei / analysis-reuse-level=5 / scale-factor=0 / refine-intra=0 / refine-inter=0 / refine-mv=0 / refine-ctu-distortion=0 / no-limit-sao / ctu-info=0 / no-lowpass-dct / refine-analysis-type=-484638720 / copy-pic=1 / max-ausize-factor=1.0 / no-dynamic-refine / no-single-sei / no-hevc-aq / no-svt / qp-adaptation-range=1.00
    Default                     : Yes
    Forced                      : No
    Color range                 : Limited
    Color primaries             : BT.2020
    Transfer characteristics    : PQ
    Matrix coefficients         : BT.2020 non-constant
    Mastering display color pri : BT.2020
    Mastering display luminance : min: 0.0001 cd/m2, max: 1000 cd/m2
    Maximum Content Light Level : 399 cd/m2
    Maximum Frame-Average Light : 261 cd/m2

    Audio #1
    ID                          : 2
    Format                      : DTS XLL
    Format/Info                 : Digital Theater Systems
    Commercial name             : DTS-HD Master Audio
    Codec ID                    : A_DTS
    Duration                    : 1 h 48 min
    Bit rate mode               : Variable
    Bit rate                    : 2 411 kb/s
    Channel(s)                  : 6 channels
    Channel layout              : C L R Ls Rs LFE
    Sampling rate               : 48.0 kHz
    Frame rate                  : 93.750 FPS (512 SPF)
    Bit depth                   : 16 bits
    Compression mode            : Lossless
    Stream size                 : 1.82 GiB (7%)
    Language                    : Spanish
    Default                     : Yes
    Forced                      : No

    Audio #2
    ID                          : 3
    Format                      : MLP FBA 16-ch
    Format/Info                 : Meridian Lossless Packing FBA with 16-channel presentation
    Commercial name             : Dolby TrueHD with Dolby Atmos
    Codec ID                    : A_TRUEHD
    Duration                    : 1 h 48 min
    Bit rate mode               : Variable
    Bit rate                    : 5 000 kb/s
    Maximum bit rate            : 7 242 kb/s
    Channel(s)                  : 8 channels
    Channel layout              : L R C LFE Ls Rs Lb Rb
    Sampling rate               : 48.0 kHz
    Frame rate                  : 1 200.000 FPS (40 SPF)
    Compression mode            : Lossless
    Stream size                 : 3.78 GiB (14%)
    Language                    : Chinese
    Default                     : No
    Forced                      : No
    Number of dynamic objects   : 11
    Bed channel count           : 1 channel
    Bed channel configuration   : LFE

    Text
    ID                          : 4
    Format                      : PGS
    Muxing mode                 : zlib
    Codec ID                    : S_HDMV/PGS
    Codec ID/Info               : Picture based subtitle format used on BDs/HD-DVDs
    Duration                    : 1 h 44 min
    Bit rate                    : 33.5 kb/s
    Count of elements           : 2202
    Stream size                 : 24.9 MiB (0%)
    Language                    : Spanish
    Default                     : No
    Forced                      : No

    Menu
    00:00:00.000                : en:A New Life In Hong Kong
    00:05:43.500                : en:You Teach Wing Chun?
    00:13:51.417                : en:Old Friend/New Enemy
    00:19:50.458                : en:The Fish Market
    00:29:24.375                : en:Jail
    00:35:26.458                : en:Initiation
    00:46:45.625                : en:Wing Chun vs. Hung Kuen
    00:57:32.000                : en:So This Is Chinese Boxing?
    01:08:12.708                : en:Won't Tolerate Insults
    01:16:00.167                : en:No More Trouble
    01:19:53.375                : en:Press Conference
    01:22:45.833                : en:Practice Well
    01:27:00.000                : en:The Boxing Competition
    01:33:51.917                : en:Round Two
    01:36:22.750                : en:Test His Ribcage
    01:43:54.292                : en:Bruce Lee

  • Peso: 27.6 GiB

Sinopsis

En esta secuela, Ip Man (Donnie Yen), llega a Hong-Kong y abre una escuela de Wing Chun, pero pronto entrará en conflicto con un maestro local de Hung Fist llamado Hung Jan-nam, quien es interpretado por Sammo Hung. Aunque, Ip Man, últimamente ha sido desafiado por los ingleses que gobiernan el territorio, las tensiones entre los dos maestros de Kung fu sigue incrementando, y eso hace que ellos se vean forzados a batirse a duelo.

Latino: DTS-HD MA 5.1 – Chino: TrueHD 7.1

Ficha técnica

  • Titulo original: 葉問2
  • Fecha de lanzamiento: 21-04-2010 (China, Hong Kong)
  • Director: Wilson Yip
  • Género: Acción, Drama, Historia
  • Puntuación: 5.0 1 votos
  • Duración:
    1h 48m

Video trailer de la película

Enlaces de descarga

Rip de Bluray

Descargar IP Man 2 (2010) 4K HDR BDRip Latino – CMHDD




Aportes de DPeliculasHDmega la pass es:dpeliculashdmega.org Aportes de CinemaniaHD la pass es:cinemaniahdd.com
Guardado en : Acción , Drama , Historia

Películas relacionadas

  • Antonia: Una sinfonía (2018) HD 1080p Latino

    Antonia: Una sinfonía (2018) HD 1080p Latino

    2018
    Antonia: Una sinfonía (2018) HD 1080p Latino

    0.0 2h 17m 2018

    Descargar Antonia: Una sinfonía (2018) HD 1080p Latino. Película basada en la vida de Antonia Brico,...

    Director: Maria Peters

    Género: Drama

    Actores: Tim Ahern

  • Antonia: Una sinfonía (2018) REMUX 1080p Latino

    Antonia: Una sinfonía (2018) REMUX 1080p Latino

    2018
    Antonia: Una sinfonía (2018) REMUX 1080p Latino

    0.0 2h 17m 2018

    Descargar Antonia: Una sinfonía (2018) REMUX 1080p Latino. Película basada en la vida de Antonia Brico,...

    Director: Maria Peters

    Género: Drama

    Actores: Tim Ahern

  • Borg Vs McEnroe (2017) Full HD 1080p Latino – CMHDD

    Borg Vs McEnroe (2017) Full HD 1080p Latino – CMHDD

    2017
    Borg Vs McEnroe (2017) Full HD 1080p Latino – CMHDD

    0.0 1h 47m 2017

    Narra la historia de la rivalidad entre dos leyendas del tenis: el sueco Björn Borg (Sverrir Gudnason)...

    Director: Janus Metz Pedersen

    Género: Drama

    Actores: Wille Glyt

  • Borg Vs McEnroe (2017) REMUX 1080p Latino – CMHDD

    Borg Vs McEnroe (2017) REMUX 1080p Latino – CMHDD

    2017
    Borg Vs McEnroe (2017) REMUX 1080p Latino – CMHDD

    0.0 1h 47m 2017

    Narra la historia de la rivalidad entre dos leyendas del tenis: el sueco Björn Borg (Sverrir Gudnason)...

    Director: Janus Metz Pedersen

    Género: Drama

    Actores: Wille Glyt

IP Man 2 (2010) 4K HDR BDRip Latino – CMHDD pelicula full hd, IP Man 2 (2010) 4K HDR BDRip Latino – CMHDD mega latino, IP Man 2 (2010) 4K HDR BDRip Latino – CMHDD 4k latino, IP Man 2 (2010) 4K HDR BDRip Latino – CMHDD pelicula completa, IP Man 2 (2010) 4K HDR BDRip Latino – CMHDD descargar gratis, descargar IP Man 2 (2010) 4K HDR BDRip Latino – CMHDD pelicula latino, IP Man 2 (2010) 4K HDR BDRip Latino – CMHDD 1 link mega, IP Man 2 (2010) 4K HDR BDRip Latino – CMHDD 1 link google drive, IP Man 2 (2010) 4K HDR BDRip Latino – CMHDD hd 1080p latino.
Comentarios 2
  • oscar - 13 febrero, 2021

    hola alguna de tus películas en 4k me dan problema con el audio.. por el ejemplo esta, mi tv no reconoce el audio y es una tv de calidad mediana de samsung del año pasado.. pero otras peliculas si son compatibles. por el ejemplo ip man 4 en 4k pero la que pesa menos. y sugun las especificaciones tienen el mismo codec de audio.

    • Dracarys - 14 febrero, 2021

      es por el audio DTS-HD MA que tu TV no es compatible