×

¿Problemas para descargar con Mozilla, EDGE? Deshabilita la opción "Abrir vinculos en una pestaña nueva" tal como lo muestra ésta imagen.

Invitación al Infierno (2022) UNRATED PLACEBO Full HD 1080p Latino

52 vistas

Información de Invitación al Infierno (2022) UNRATED PLACEBO Full HD 1080p Latino

Datos de la película

  • Calidad: Full 1080p
  • Audio: Español Latino AC3 5.1 BLURAY - Ingles DTS 5.1 BLURAY
  • Subtitulos: Español Latino PGS - Ingles PGS
  • Resolución: 1920x1080p
  • Formato: MKV
  • Codec: H.264
  • Encoder: Melkor
  • Mediainfo: Clic para Mostrar Datos Ver
  • Invitacion Al Infierno (2022) UNRATED PLACEBO 1080p Latino.mkv
    Format                      : Matroska
    Format version              : Version 4
    File size                   : 4.73 GiB
    Duration                    : 1 h 45 min
    Overall bit rate            : 6 395 kb/s
    Movie name                  : The Invitation (2022) CinemaniaHDD.Net
    Encoded date                : UTC 2022-10-24 14:03:47
    Writing application         : mkvmerge v56.1.0 ('My Friend') 64-bit
    Writing library             : libebml v1.4.2 + libmatroska v1.6.4
    Attachments                 : CINEMANIAHD.png

    Video
    ID                          : 1
    Format                      : AVC
    Format/Info                 : Advanced Video Codec
    Format profile              : High@L4.1
    Format settings             : CABAC / 4 Ref Frames
    Format settings, CABAC      : Yes
    Format settings, Reference  : 4 frames
    Codec ID                    : V_MPEG4/ISO/AVC
    Duration                    : 1 h 45 min
    Bit rate                    : 4 214 kb/s
    Width                       : 1 920 pixels
    Height                      : 1 080 pixels
    Display aspect ratio        : 16:9
    Frame rate mode             : Constant
    Frame rate                  : 23.976 (24000/1001) FPS
    Color space                 : YUV
    Chroma subsampling          : 4:2:0
    Bit depth                   : 8 bits
    Scan type                   : Progressive
    Bits/(Pixel*Frame)          : 0.085
    Stream size                 : 3.12 GiB (66%)
    Title                       : Full HD1080p [CinemaniaHDD]
    Writing library             : x264 core 163 r3059 b684ebe0
    Encoding settings           : cabac=1 / ref=4 / deblock=1:0:0 / analyse=0x3:0x133 / me=tesa / subme=11 / psy=1 / psy_rd=1.00:0.00 / mixed_ref=1 / me_range=24 / chroma_me=1 / trellis=2 / 8x8dct=1 / cqm=0 / deadzone=21,11 / fast_pskip=0 / chroma_qp_offset=-2 / threads=24 / lookahead_threads=6 / sliced_threads=0 / nr=0 / decimate=1 / interlaced=0 / bluray_compat=0 / constrained_intra=0 / bframes=16 / b_pyramid=2 / b_adapt=2 / b_bias=0 / direct=3 / weightb=1 / open_gop=0 / weightp=2 / keyint=240 / keyint_min=24 / scenecut=40 / intra_refresh=0 / rc_lookahead=60 / rc=crf / mbtree=1 / crf=18.0 / qcomp=0.60 / qpmin=0 / qpmax=69 / qpstep=4 / vbv_maxrate=62500 / vbv_bufsize=78125 / crf_max=0.0 / nal_hrd=none / filler=0 / ip_ratio=1.40 / aq=1:1.00
    Default                     : Yes
    Forced                      : Yes
    Color range                 : Limited
    Color primaries             : BT.709
    Transfer characteristics    : BT.709
    Matrix coefficients         : BT.709

    Audio #1
    ID                          : 2
    Format                      : AC-3
    Format/Info                 : Audio Coding 3
    Commercial name             : Dolby Digital
    Codec ID                    : A_AC3
    Duration                    : 1 h 45 min
    Bit rate mode               : Constant
    Bit rate                    : 640 kb/s
    Channel(s)                  : 6 channels
    Channel layout              : L R C LFE Ls Rs
    Sampling rate               : 48.0 kHz
    Frame rate                  : 31.250 FPS (1536 SPF)
    Compression mode            : Lossy
    Stream size                 : 485 MiB (10%)
    Title                       : Español Latino [CinemaniaHDD]
    Language                    : Spanish
    Service kind                : Complete Main
    Default                     : Yes
    Forced                      : Yes

    Audio #2
    ID                          : 3
    Format                      : DTS
    Format/Info                 : Digital Theater Systems
    Codec ID                    : A_DTS
    Duration                    : 1 h 45 min
    Bit rate mode               : Constant
    Bit rate                    : 1 509 kb/s
    Channel(s)                  : 6 channels
    Channel layout              : C L R Ls Rs LFE
    Sampling rate               : 48.0 kHz
    Frame rate                  : 93.750 FPS (512 SPF)
    Bit depth                   : 24 bits
    Compression mode            : Lossy
    Stream size                 : 1.12 GiB (24%)
    Title                       : Ingles [CinemaniaHDD]
    Language                    : English
    Default                     : No
    Forced                      : No

    Text #1
    ID                          : 4
    Format                      : PGS
    Muxing mode                 : zlib
    Codec ID                    : S_HDMV/PGS
    Codec ID/Info               : Picture based subtitle format used on BDs/HD-DVDs
    Duration                    : 1 h 43 min
    Bit rate                    : 4 607 b/s
    Count of elements           : 400
    Stream size                 : 3.39 MiB (0%)
    Title                       : Forzados-PGS [CinemaniaHDD]
    Language                    : Spanish
    Default                     : No
    Forced                      : No

    Text #2
    ID                          : 5
    Format                      : PGS
    Muxing mode                 : zlib
    Codec ID                    : S_HDMV/PGS
    Codec ID/Info               : Picture based subtitle format used on BDs/HD-DVDs
    Duration                    : 1 h 44 min
    Bit rate                    : 25.2 kb/s
    Count of elements           : 2332
    Stream size                 : 18.9 MiB (0%)
    Title                       : Español-PGS [CinemaniaHDD]
    Language                    : Spanish
    Default                     : No
    Forced                      : No

    Text #3
    ID                          : 6
    Format                      : PGS
    Muxing mode                 : zlib
    Codec ID                    : S_HDMV/PGS
    Codec ID/Info               : Picture based subtitle format used on BDs/HD-DVDs
    Duration                    : 1 h 39 min
    Bit rate                    : 28.2 kb/s
    Count of elements           : 2242
    Stream size                 : 20.0 MiB (0%)
    Title                       : Ingles [CinemaniaHDD]
    Language                    : English
    Default                     : No
    Forced                      : No

    Text #4
    ID                          : 7
    Format                      : UTF-8
    Codec ID                    : S_TEXT/UTF8
    Codec ID/Info               : UTF-8 Plain Text
    Duration                    : 1 h 43 min
    Bit rate                    : 7 b/s
    Count of elements           : 200
    Stream size                 : 5.72 KiB (0%)
    Title                       : Forzados-SRT [CinemaniaHDD]
    Language                    : Spanish
    Default                     : Yes
    Forced                      : Yes

    Text #5
    ID                          : 8
    Format                      : UTF-8
    Codec ID                    : S_TEXT/UTF8
    Codec ID/Info               : UTF-8 Plain Text
    Duration                    : 1 h 41 min
    Bit rate                    : 49 b/s
    Count of elements           : 1217
    Stream size                 : 37.0 KiB (0%)
    Title                       : Español-SRT [CinemaniaHDD]
    Language                    : Spanish
    Default                     : No
    Forced                      : No

    Menu
    00:00:00.000                : Chapter 01
    00:07:41.961                : Chapter 02
    00:12:51.604                : Chapter 03
    00:17:41.810                : Chapter 04
    00:23:31.034                : Chapter 05
    00:29:19.757                : Chapter 06
    00:35:34.340                : Chapter 07
    00:42:25.250                : Chapter 08
    00:47:37.813                : Chapter 09
    00:53:40.550                : Chapter 10
    00:58:30.131                : Chapter 11
    01:04:28.489                : Chapter 12
    01:11:55.978                : Chapter 13
    01:17:41.114                : Chapter 14
    01:22:32.989                : Chapter 15
    01:29:52.011                : Chapter 16

  • Peso: 4.73 GiB

Sinopsis

Descargar Invitación al Infierno (2022) UNRATED PLACEBO Full HD 1080p Latino. Tras la muerte de su madre, su única familia, Evie (Nathalie Emmanuel) se somete a una prueba de ADN…y descubre que tiene un primo, quien la invita a una boda extravagante en el campo inglés. Lo que comienza como un juego seductor de parte de su anfitrión pronto se torna en una pesadilla por supervivencia para Evie cuando descubre los retorcidos secretos de su familia y las intenciones macabras detrás de su generosidad.

Ficha técnica

Video trailer de la película

Enlaces de descarga

Rip de Bluray

Descargar Invitación al Infierno (2022) UNRATED PLACEBO Full HD 1080p Latino




Aportes de DPeliculasHDmega la pass es:dpeliculashdmega.org Aportes de CinemaniaHD la pass es:cinemaniahdd.com

Películas relacionadas

descargar Invitación al Infierno (2022) UNRATED PLACEBO Full HD 1080p Latino Full 1080p 1080p gratis, Invitación al Infierno (2022) UNRATED PLACEBO Full HD 1080p Latino Full 1080p mega 1 link, Invitación al Infierno (2022) UNRATED PLACEBO Full HD 1080p Latino Full 1080p pelicula completa, descargar Invitación al Infierno (2022) UNRATED PLACEBO Full HD 1080p Latino Full 1080p gratis en mega.

Invitación al Infierno (2022) UNRATED PLACEBO Full HD 1080p Latino pelicula full hd, Invitación al Infierno (2022) UNRATED PLACEBO Full HD 1080p Latino mega latino, Invitación al Infierno (2022) UNRATED PLACEBO Full HD 1080p Latino 4k latino, Invitación al Infierno (2022) UNRATED PLACEBO Full HD 1080p Latino pelicula completa, Invitación al Infierno (2022) UNRATED PLACEBO Full HD 1080p Latino descargar gratis, descargar Invitación al Infierno (2022) UNRATED PLACEBO Full HD 1080p Latino pelicula latino, Invitación al Infierno (2022) UNRATED PLACEBO Full HD 1080p Latino 1 link mega, Invitación al Infierno (2022) UNRATED PLACEBO Full HD 1080p Latino 1 link google drive, Invitación al Infierno (2022) UNRATED PLACEBO Full HD 1080p Latino hd 1080p latino.
Comentarios 0