×

¿Problemas para descargar con Mozilla, EDGE? Deshabilita la opción "Abrir vinculos en una pestaña nueva" tal como lo muestra ésta imagen.

Invencible (2023) Temporada 2 AMZN WEB-DL 1080p Latino

261 vistas

Información de Invencible (2023) Temporada 2 AMZN WEB-DL 1080p Latino

Datos de la película

  • Calidad: 1080p
  • Audio: Español Latino AC3 5.1 WEB-DL - Ingles AC3 5.1 WEB-DL
  • Subtitulos: Español Latino SRT- FORZADOS SRT
  • Resolución: 1920x1080
  • Formato: MKV
  • Codec: H.264
  • Encoder: cinemaniahdd
  • Mediainfo: Clic para Mostrar Datos Ver
  • Invincible T02E01 AMZN WEB-DL 1080p Latino [CNMNHDD].mkv
    Format                      : Matroska
    Format version              : Version 4
    File size                   : 1.85 GiB
    Duration                    : 48 min 45 s
    Overall bit rate            : 5 442 kb/s
    Movie name                  : Invincible S02E01 - A LESSON FOR YOUR NEXT LIFE [1080p] - CinemaniaHDD.Net
    Encoded date                : UTC 2023-11-03 00:39:06
    Writing application         : mkvmerge v56.1.0 ('My Friend') 64-bit
    Writing library             : libebml v1.4.2 + libmatroska v1.6.4

    Video
    ID                          : 1
    Format                      : AVC
    Format/Info                 : Advanced Video Codec
    Format profile              : High@L4
    Format settings             : CABAC / 4 Ref Frames
    Format settings, CABAC      : Yes
    Format settings, Reference  : 4 frames
    Codec ID                    : V_MPEG4/ISO/AVC
    Duration                    : 48 min 45 s
    Bit rate mode               : Constant
    Bit rate                    : 3 519 kb/s
    Nominal bit rate            : 10 000 kb/s
    Width                       : 1 920 pixels
    Height                      : 1 080 pixels
    Display aspect ratio        : 16:9
    Frame rate mode             : Constant
    Frame rate                  : 23.976 (24000/1001) FPS
    Color space                 : YUV
    Chroma subsampling          : 4:2:0
    Bit depth                   : 8 bits
    Scan type                   : Progressive
    Bits/(Pixel*Frame)          : 0.071
    Stream size                 : 1.20 GiB (65%)
    Title                       : CinemaniaHDD
    Default                     : Yes
    Forced                      : No
    Color range                 : Limited
    Color primaries             : BT.709
    Transfer characteristics    : BT.709
    Matrix coefficients         : BT.709

    Audio #1
    ID                          : 2
    Format                      : AC-3
    Format/Info                 : Audio Coding 3
    Commercial name             : Dolby Digital
    Codec ID                    : A_AC3
    Duration                    : 48 min 45 s
    Bit rate mode               : Constant
    Bit rate                    : 640 kb/s
    Channel(s)                  : 6 channels
    Channel layout              : L R C LFE Ls Rs
    Sampling rate               : 48.0 kHz
    Frame rate                  : 31.250 FPS (1536 SPF)
    Compression mode            : Lossy
    Stream size                 : 223 MiB (12%)
    Title                       : Español Latino [CinemaniaHDD]
    Language                    : Spanish
    Service kind                : Complete Main
    Default                     : Yes
    Forced                      : No

    Audio #2
    ID                          : 3
    Format                      : E-AC-3
    Format/Info                 : Enhanced AC-3
    Commercial name             : Dolby Digital Plus
    Codec ID                    : A_EAC3
    Duration                    : 48 min 45 s
    Bit rate mode               : Constant
    Bit rate                    : 640 kb/s
    Channel(s)                  : 6 channels
    Channel layout              : L R C LFE Ls Rs
    Sampling rate               : 48.0 kHz
    Frame rate                  : 31.250 FPS (1536 SPF)
    Compression mode            : Lossy
    Stream size                 : 223 MiB (12%)
    Title                       : Español latino / E-AC3 [CinemaniaHDD]
    Language                    : Spanish
    Service kind                : Complete Main
    Default                     : No
    Forced                      : No

    Audio #3
    ID                          : 4
    Format                      : E-AC-3
    Format/Info                 : Enhanced AC-3
    Commercial name             : Dolby Digital Plus
    Codec ID                    : A_EAC3
    Duration                    : 48 min 45 s
    Bit rate mode               : Constant
    Bit rate                    : 640 kb/s
    Channel(s)                  : 6 channels
    Channel layout              : L R C LFE Ls Rs
    Sampling rate               : 48.0 kHz
    Frame rate                  : 31.250 FPS (1536 SPF)
    Compression mode            : Lossy
    Stream size                 : 223 MiB (12%)
    Title                       : Inglés [CinemaniaHDD]
    Language                    : English
    Service kind                : Complete Main
    Default                     : No
    Forced                      : No

    Text #1
    ID                          : 5
    Format                      : UTF-8
    Codec ID                    : S_TEXT/UTF8
    Codec ID/Info               : UTF-8 Plain Text
    Duration                    : 20 min 17 s
    Bit rate                    : 0 b/s
    Count of elements           : 3
    Stream size                 : 76.0 Bytes (0%)
    Title                       : Forzados [CinemaniaHDD]
    Language                    : Spanish
    Default                     : Yes
    Forced                      : Yes

    Text #2
    ID                          : 6
    Format                      : UTF-8
    Codec ID                    : S_TEXT/UTF8
    Codec ID/Info               : UTF-8 Plain Text
    Duration                    : 45 min 16 s
    Bit rate                    : 59 b/s
    Count of elements           : 724
    Stream size                 : 19.6 KiB (0%)
    Title                       : Español Latino [CinemaniaHDD]
    Language                    : Spanish
    Default                     : No
    Forced                      : No

    Text #3
    ID                          : 7
    Format                      : UTF-8
    Codec ID                    : S_TEXT/UTF8
    Codec ID/Info               : UTF-8 Plain Text
    Duration                    : 44 min 49 s
    Bit rate                    : 72 b/s
    Count of elements           : 896
    Stream size                 : 23.9 KiB (0%)
    Title                       : Inglés [CinemaniaHDD]
    Language                    : English
    Default                     : No
    Forced                      : No

    Menu
    00:00:00.000                : 1. Studio Logo
    00:00:06.000                : 2. Previously On
    00:01:52.000                : Scene 3
    00:03:34.000                : Scene 4
    00:04:18.000                : Scene 5
    00:05:21.000                : Scene 6
    00:06:03.000                : Scene 7
    00:06:40.000                : Scene 8
    00:07:16.000                : Scene 9
    00:07:52.000                : Scene 10
    00:08:13.000                : Scene 11
    00:09:02.000                : Scene 12
    00:12:46.000                : Scene 13
    00:13:23.000                : Scene 14
    00:14:59.000                : Scene 15
    00:17:01.000                : Scene 16
    00:18:50.000                : Scene 17
    00:20:21.000                : Scene 18
    00:20:43.000                : Scene 19
    00:22:58.000                : Scene 20
    00:26:24.000                : Scene 21
    00:29:28.000                : Scene 22
    00:31:47.000                : Scene 23
    00:32:04.000                : Scene 24
    00:33:14.000                : Scene 25
    00:33:47.000                : Scene 26
    00:38:25.000                : Scene 27
    00:39:45.000                : Scene 28
    00:40:40.000                : Scene 29
    00:41:31.000                : Scene 30
    00:42:12.000                : 31. End Credits
    00:42:18.000                : Scene 32
    00:44:03.000                : 33. Title Sequence
    00:44:11.000                : Scene 34
    00:44:28.000                : 35. End Credits

     

  • Peso: 3.53 GiB C/U --- 3 CAPÍTULOS DISPONIBLES

Sinopsis

Luego de una devastadora traición, Mark intenta reconstruir su vida. Ante la presencia de amenazas apocalípticas, Mark encuentra a nuevos aliados y enfrenta a su miedo más grande: la posibilidad de convertirse en su padre.
3 CAPÍTULOS DISPONIBLES

Ficha técnica

Video trailer de la película

Enlaces de descarga

Rip de Bluray

Descargar Invencible (2023) Temporada 2 AMZN WEB-DL 1080p Latino




Aportes de DPeliculasHDmega la pass es:dpeliculashdmega.org Aportes de CinemaniaHD la pass es:cinemaniahdd.com Aportes recientes:cinemaniahdd.net

Películas relacionadas

descargar Invencible (2023) Temporada 2 AMZN WEB-DL 1080p Latino 1080p 1080p gratis, Invencible (2023) Temporada 2 AMZN WEB-DL 1080p Latino 1080p mega 1 link, Invencible (2023) Temporada 2 AMZN WEB-DL 1080p Latino 1080p serie completa, descargar Invencible (2023) Temporada 2 AMZN WEB-DL 1080p Latino 1080p gratis en mega.

Invencible (2023) Temporada 2 AMZN WEB-DL 1080p Latino pelicula full hd, Invencible (2023) Temporada 2 AMZN WEB-DL 1080p Latino mega latino, Invencible (2023) Temporada 2 AMZN WEB-DL 1080p Latino 4k latino, Invencible (2023) Temporada 2 AMZN WEB-DL 1080p Latino pelicula completa, Invencible (2023) Temporada 2 AMZN WEB-DL 1080p Latino descargar gratis, descargar Invencible (2023) Temporada 2 AMZN WEB-DL 1080p Latino pelicula latino, Invencible (2023) Temporada 2 AMZN WEB-DL 1080p Latino 1 link mega, Invencible (2023) Temporada 2 AMZN WEB-DL 1080p Latino 1 link google drive, Invencible (2023) Temporada 2 AMZN WEB-DL 1080p Latino hd 1080p latino.
Comentarios 0