×

¿Problemas para descargar con Mozilla, EDGE? Deshabilita la opción "Abrir vinculos en una pestaña nueva" tal como lo muestra ésta imagen.

Invencible (2021) Temporada 1 AMZN WEB-DL 1080p Latino

498 vistas

Información de Invencible (2021) Temporada 1 AMZN WEB-DL 1080p Latino

Datos de la película

  • Calidad: WEBDL
  • Audio: Español Latino E-AC3 5.1 AMAZON - Ingles E-AC3 5.1 AMAZON
  • Subtitulos: Español Latino SRT- FORZADOS SRT
  • Resolución: 1920x1080
  • Formato: MKV
  • Codec: H.264
  • Encoder: cinemaniahdd
  • Mediainfo: Clic para Mostrar Datos Ver
  • Invincible T01E02 AMZN WEB-DL 1080p Latino [CNMNHDD].mkv
    Format                      : Matroska
    Format version              : Version 4
    File size                   : 1.95 GiB
    Duration                    : 44 min 27 s
    Overall bit rate            : 6 264 kb/s
    Movie name                  : Invincible T01E02 - CinemaniaHDD.Net
    Encoded date                : UTC 2021-03-27 03:16:08
    Writing application         : mkvmerge v51.0.0 ('I Wish') 64-bit
    Writing library             : libebml v1.4.0 + libmatroska v1.6.2

    Video
    ID                          : 1
    Format                      : AVC
    Format/Info                 : Advanced Video Codec
    Format profile              : High@L4
    Format settings             : CABAC / 4 Ref Frames
    Format settings, CABAC      : Yes
    Format settings, Reference  : 4 frames
    Codec ID                    : V_MPEG4/ISO/AVC
    Duration                    : 44 min 27 s
    Bit rate mode               : Constant
    Bit rate                    : 4 341 kb/s
    Nominal bit rate            : 10 000 kb/s
    Width                       : 1 920 pixels
    Height                      : 1 080 pixels
    Display aspect ratio        : 16:9
    Frame rate mode             : Constant
    Frame rate                  : 24.000 FPS
    Color space                 : YUV
    Chroma subsampling          : 4:2:0
    Bit depth                   : 8 bits
    Scan type                   : Progressive
    Bits/(Pixel*Frame)          : 0.087
    Stream size                 : 1.35 GiB (69%)
    Title                       : CinemaniaHDD
    Default                     : Yes
    Forced                      : No
    Color range                 : Limited
    Color primaries             : BT.709
    Transfer characteristics    : BT.709
    Matrix coefficients         : BT.709

    Audio #1
    ID                          : 2
    Format                      : AC-3
    Format/Info                 : Audio Coding 3
    Commercial name             : Dolby Digital
    Codec ID                    : A_AC3
    Duration                    : 44 min 27 s
    Bit rate mode               : Constant
    Bit rate                    : 640 kb/s
    Channel(s)                  : 6 channels
    Channel layout              : L R C LFE Ls Rs
    Sampling rate               : 48.0 kHz
    Frame rate                  : 31.250 FPS (1536 SPF)
    Compression mode            : Lossy
    Stream size                 : 204 MiB (10%)
    Title                       : Español latino - AC3 [CinemaniaHDD]
    Language                    : Spanish
    Service kind                : Complete Main
    Default                     : Yes
    Forced                      : No

    Audio #2
    ID                          : 3
    Format                      : E-AC-3
    Format/Info                 : Enhanced AC-3
    Commercial name             : Dolby Digital Plus
    Codec ID                    : A_EAC3
    Duration                    : 44 min 27 s
    Bit rate mode               : Constant
    Bit rate                    : 640 kb/s
    Channel(s)                  : 6 channels
    Channel layout              : L R C LFE Ls Rs
    Sampling rate               : 48.0 kHz
    Frame rate                  : 31.250 FPS (1536 SPF)
    Compression mode            : Lossy
    Stream size                 : 204 MiB (10%)
    Title                       : Español latino - E-AC3 [CinemaniaHDD]
    Language                    : Spanish
    Service kind                : Complete Main
    Default                     : No
    Forced                      : No

    Audio #3
    ID                          : 4
    Format                      : E-AC-3
    Format/Info                 : Enhanced AC-3
    Commercial name             : Dolby Digital Plus
    Codec ID                    : A_EAC3
    Duration                    : 44 min 27 s
    Bit rate mode               : Constant
    Bit rate                    : 640 kb/s
    Channel(s)                  : 6 channels
    Channel layout              : L R C LFE Ls Rs
    Sampling rate               : 48.0 kHz
    Frame rate                  : 31.250 FPS (1536 SPF)
    Compression mode            : Lossy
    Stream size                 : 204 MiB (10%)
    Title                       : Inglés - E-AC3 [CinemaniaHDD]
    Language                    : English
    Service kind                : Complete Main
    Default                     : No
    Forced                      : No

    Text #1
    ID                          : 5
    Format                      : UTF-8
    Codec ID                    : S_TEXT/UTF8
    Codec ID/Info               : UTF-8 Plain Text
    Duration                    : 36 min 0 s
    Bit rate                    : 0 b/s
    Count of elements           : 5
    Stream size                 : 212 Bytes (0%)
    Title                       : Forzados [CinemaniaHDD]
    Language                    : Spanish
    Default                     : Yes
    Forced                      : Yes

    Text #2
    ID                          : 6
    Format                      : UTF-8
    Codec ID                    : S_TEXT/UTF8
    Codec ID/Info               : UTF-8 Plain Text
    Duration                    : 44 min 16 s
    Bit rate                    : 57 b/s
    Count of elements           : 580
    Stream size                 : 18.6 KiB (0%)
    Title                       : Español latino [CinemaniaHDD]
    Language                    : Spanish
    Default                     : No
    Forced                      : No

    Text #3
    ID                          : 7
    Format                      : UTF-8
    Codec ID                    : S_TEXT/UTF8
    Codec ID/Info               : UTF-8 Plain Text
    Duration                    : 43 min 2 s
    Bit rate                    : 70 b/s
    Count of elements           : 1016
    Stream size                 : 22.2 KiB (0%)
    Title                       : Inglés [CinemaniaHDD]
    Language                    : English
    Default                     : No
    Forced                      : No

    Menu
    00:00:00.000                : en:Amazon Original
    00:00:05.000                : en:Disclaimer
    00:00:15.000                : en:Scene 3
    00:01:11.000                : en:Scene 4
    00:02:35.000                : en:Scene 5
    00:04:08.000                : en:Title Sequence
    00:04:12.000                : en:Scene 7
    00:06:00.000                : en:Scene 8
    00:10:36.000                : en:Scene 9
    00:11:17.000                : en:Scene 10
    00:13:44.000                : en:Scene 11
    00:15:33.000                : en:Scene 12
    00:16:50.000                : en:Scene 13
    00:18:18.000                : en:Scene 14
    00:18:53.000                : en:Scene 15
    00:21:17.000                : en:Scene 16
    00:22:39.000                : en:Scene 17
    00:22:55.000                : en:Scene 18
    00:23:48.000                : en:Scene 19
    00:29:09.000                : en:Scene 20
    00:30:21.000                : en:Scene 21
    00:31:49.000                : en:Scene 22
    00:35:18.000                : en:Scene 23
    00:36:04.000                : en:Scene 24
    00:40:10.000                : en:Scene 25
    00:40:47.000                : en:Scene 26
    00:41:40.000                : en:Scene 27
    00:41:59.000                : en:Closing Credits
    00:42:05.000                : en:Scene 29
    00:43:17.000                : en:End Credits

     

  • Peso: 1.95 GiB Aprox ---- 14 GiB in 8 Chapters.

Sinopsis

INVENCIBLE es una serie animada de superhéroes para adultos que gira en torno a Mark Grayson, un chico de 17 años como cualquier otro de su edad, salvo que su padre, Omni-Man, es el superhéroe más poderoso del planeta. Pero a medida que Mark desarrolla sus propios poderes, descubre que el legado de su padre puede no ser tan heroico como parece.
 

Ficha técnica

Video trailer de la película

Enlaces de descarga

Rip de Bluray

Descargar Invencible (2021) Temporada 1 AMZN WEB-DL 1080p Latino




Aportes de DPeliculasHDmega la pass es:dpeliculashdmega.org Aportes de CinemaniaHD la pass es:cinemaniahdd.com

Películas relacionadas

  • Un mundo extraño (2022) HD 1080p Latino

    Un mundo extraño (2022) HD 1080p Latino

    2022
    Un mundo extraño (2022) HD 1080p Latino

    1h 42m 2022

    Descargar Un mundo extraño (2022) HD 1080p Latino. Los Clades son una familia conocida en todo el mundo,...

    Director: Thai Bettistea

    Género: Animación

    Actores: Reed Buck

  • Un mundo extraño (2022) REMUX 1080p Latino

    Un mundo extraño (2022) REMUX 1080p Latino

    2022
    Un mundo extraño (2022) REMUX 1080p Latino

    1h 42m 2022

    Descargar Un mundo extraño (2022) REMUX 1080p. Un viaje a una tierra inexplorada y traicionera en la...

    Director: Thai Bettistea

    Género: Animación

    Actores: Reed Buck

  • Stromboli (2022) NF WEB-DL 1080p Latino

    Stromboli (2022) NF WEB-DL 1080p Latino

    2022
    Stromboli (2022) NF WEB-DL 1080p Latino

    1h 26m 2022

    Descargar Stromboli (2022) NF WEB-DL 1080p Latino. Sara, una mujer que se ha divorciado recientemente,...

    Director: Michiel van Erp

    Género: Drama

    Actores: Tim McInnerny

descargar Invencible (2021) Temporada 1 AMZN WEB-DL 1080p Latino WEBDL 1080p gratis, Invencible (2021) Temporada 1 AMZN WEB-DL 1080p Latino WEBDL mega 1 link, Invencible (2021) Temporada 1 AMZN WEB-DL 1080p Latino WEBDL serie completa, descargar Invencible (2021) Temporada 1 AMZN WEB-DL 1080p Latino WEBDL gratis en mega.

Invencible (2021) Temporada 1 AMZN WEB-DL 1080p Latino pelicula full hd, Invencible (2021) Temporada 1 AMZN WEB-DL 1080p Latino mega latino, Invencible (2021) Temporada 1 AMZN WEB-DL 1080p Latino 4k latino, Invencible (2021) Temporada 1 AMZN WEB-DL 1080p Latino pelicula completa, Invencible (2021) Temporada 1 AMZN WEB-DL 1080p Latino descargar gratis, descargar Invencible (2021) Temporada 1 AMZN WEB-DL 1080p Latino pelicula latino, Invencible (2021) Temporada 1 AMZN WEB-DL 1080p Latino 1 link mega, Invencible (2021) Temporada 1 AMZN WEB-DL 1080p Latino 1 link google drive, Invencible (2021) Temporada 1 AMZN WEB-DL 1080p Latino hd 1080p latino.
Comentarios 0