×

¿Problemas para descargar con Mozilla, EDGE? Deshabilita la opción "Abrir vinculos en una pestaña nueva" tal como lo muestra ésta imagen.

Invasión Secreta (2023) Temporada 1 Web-DL 4K UHD HDR Latino

382 vistas

Información de Invasión Secreta (2023) Temporada 1 Web-DL 4K UHD HDR Latino

Datos de la película

  • Calidad: WEBDL
  • Audio: Se especifica abajo de la Sinopsis
  • Subtitulos: Español Latino SRT- FORZADOS SRT
  • Resolución: 3840x2160p
  • Formato: MKV
  • Codec: HEVC
  • Encoder: Melkor
  • Mediainfo: Clic para Mostrar Datos Ver
  • Secret Invasion S01E01 (2023) D+ WEB UHD HDR Latino.mkv
    Format                      : Matroska
    Format version              : Version 4
    File size                   : 4.91 GiB
    Duration                    : 52 min 44 s
    Overall bit rate            : 13.3 Mb/s
    Movie name                  : CinemaniaHDD.Net
    Encoded date                : UTC 2023-06-21 15:32:40
    Writing application         : mkvmerge v56.1.0 ('My Friend') 64-bit
    Writing library             : libebml v1.4.2 + libmatroska v1.6.4
    Attachments                 : CINEMANIAHD.png
    Site                        : CinemaniaHDD.Net
    Uploader                    : Melkor

    Video
    ID                          : 1
    Format                      : HEVC
    Format/Info                 : High Efficiency Video Coding
    Format profile              : Main 10@L5@High
    HDR format                  : SMPTE ST 2086, HDR10 compatible
    Codec ID                    : V_MPEGH/ISO/HEVC
    Duration                    : 52 min 44 s
    Bit rate                    : 12.3 Mb/s
    Width                       : 3 840 pixels
    Height                      : 2 160 pixels
    Display aspect ratio        : 16:9
    Frame rate mode             : Constant
    Frame rate                  : 24.000 FPS
    Color space                 : YUV
    Chroma subsampling          : 4:2:0
    Bit depth                   : 10 bits
    Bits/(Pixel*Frame)          : 0.062
    Stream size                 : 4.53 GiB (92%)
    Title                       : Web 2160p HDR [CinemaniaHDD]
    Default                     : Yes
    Forced                      : No
    Color range                 : Limited
    Color primaries             : BT.2020
    Transfer characteristics    : PQ
    Matrix coefficients         : BT.2020 non-constant
    Mastering display color pri : BT.2020
    Mastering display luminance : min: 0.0000 cd/m2, max: 1000 cd/m2

    Audio #1
    ID                          : 2
    Format                      : E-AC-3
    Format/Info                 : Enhanced AC-3
    Commercial name             : Dolby Digital Plus
    Codec ID                    : A_EAC3
    Duration                    : 52 min 44 s
    Bit rate mode               : Constant
    Bit rate                    : 256 kb/s
    Channel(s)                  : 6 channels
    Channel layout              : L R C LFE Ls Rs
    Sampling rate               : 48.0 kHz
    Frame rate                  : 31.250 FPS (1536 SPF)
    Compression mode            : Lossy
    Stream size                 : 96.6 MiB (2%)
    Title                       : Español Latino [CinemaniaHDD]
    Language                    : Spanish
    Service kind                : Complete Main
    Default                     : Yes
    Forced                      : Yes

    Audio #2
    ID                          : 3
    Format                      : E-AC-3 JOC
    Format/Info                 : Enhanced AC-3 with Joint Object Coding
    Commercial name             : Dolby Digital Plus with Dolby Atmos
    Codec ID                    : A_EAC3
    Duration                    : 52 min 44 s
    Bit rate mode               : Constant
    Bit rate                    : 768 kb/s
    Channel(s)                  : 6 channels
    Channel layout              : L R C LFE Ls Rs
    Sampling rate               : 48.0 kHz
    Frame rate                  : 31.250 FPS (1536 SPF)
    Compression mode            : Lossy
    Stream size                 : 290 MiB (6%)
    Title                       : Ingles [CinemaniaHDD]
    Language                    : English
    Service kind                : Complete Main
    Default                     : No
    Forced                      : No
    Complexity index            : 16
    Number of dynamic objects   : 15
    Bed channel count           : 1 channel
    Bed channel configuration   : LFE

    Text #1
    ID                          : 4
    Format                      : UTF-8
    Codec ID                    : S_TEXT/UTF8
    Codec ID/Info               : UTF-8 Plain Text
    Duration                    : 38 min 3 s
    Bit rate                    : 1 b/s
    Count of elements           : 17
    Stream size                 : 545 Bytes (0%)
    Title                       : Forzados-SRT [CinemaniaHDD]
    Language                    : Spanish
    Default                     : Yes
    Forced                      : Yes

    Text #2
    ID                          : 5
    Format                      : UTF-8
    Codec ID                    : S_TEXT/UTF8
    Codec ID/Info               : UTF-8 Plain Text
    Duration                    : 52 min 27 s
    Bit rate                    : 42 b/s
    Count of elements           : 477
    Stream size                 : 16.2 KiB (0%)
    Title                       : Español-SRT [CinemaniaHDD]
    Language                    : Spanish
    Default                     : No
    Forced                      : No

    Text #3
    ID                          : 6
    Format                      : UTF-8
    Codec ID                    : S_TEXT/UTF8
    Codec ID/Info               : UTF-8 Plain Text
    Duration                    : 49 min 10 s
    Bit rate                    : 43 b/s
    Count of elements           : 463
    Stream size                 : 15.8 KiB (0%)
    Title                       : Ingles-SRT [CinemaniaHDD]
    Language                    : English
    Default                     : No
    Forced                      : No

    Menu
    00:00:00.000                : Chapter 1
    00:14:58.830                : Chapter 2
    00:24:18.914                : Chapter 3
    00:34:06.080                : Chapter 4
    00:44:34.705                : Chapter 5
    00:50:08.914                : Credits

  • Peso: 3.5 GiB Aprox C/U -- 24.13 GiB -- 6 Chapters

Sinopsis

Descargar Invasión Secreta (2023) Temporada 1 Web-DL 4K UHD HDR Latino. Nick Fury se entera de una invasión clandestina de la Tierra por parte de una facción de Skrulls. Fury se une a sus aliados, incluidos Everett Ross, Maria Hill y Talos, el Skrull que se ha ganado la vida en la Tierra. Juntos compiten contra el tiempo para frustrar una inminente invasión Skrull y salvar a la humanidad.

Audio Español Latino EAC3 5.1 D+ – Ingles EAC3 JOC 5.1 D+
Temporada Completa

Ficha técnica

Video trailer de la película

Enlaces de descarga

Rip de Bluray

Descargar Invasión Secreta (2023) Temporada 1 Web-DL 4K UHD HDR Latino




Aportes de DPeliculasHDmega la pass es:dpeliculashdmega.org Aportes de CinemaniaHD la pass es:cinemaniahdd.com Aportes recientes:cinemaniahdd.net

Películas relacionadas

descargar Invasión Secreta (2023) Temporada 1 Web-DL 4K UHD HDR Latino WEBDL 1080p gratis, Invasión Secreta (2023) Temporada 1 Web-DL 4K UHD HDR Latino WEBDL mega 1 link, Invasión Secreta (2023) Temporada 1 Web-DL 4K UHD HDR Latino WEBDL serie completa, descargar Invasión Secreta (2023) Temporada 1 Web-DL 4K UHD HDR Latino WEBDL gratis en mega.

Invasión Secreta (2023) Temporada 1 Web-DL 4K UHD HDR Latino pelicula full hd, Invasión Secreta (2023) Temporada 1 Web-DL 4K UHD HDR Latino mega latino, Invasión Secreta (2023) Temporada 1 Web-DL 4K UHD HDR Latino 4k latino, Invasión Secreta (2023) Temporada 1 Web-DL 4K UHD HDR Latino pelicula completa, Invasión Secreta (2023) Temporada 1 Web-DL 4K UHD HDR Latino descargar gratis, descargar Invasión Secreta (2023) Temporada 1 Web-DL 4K UHD HDR Latino pelicula latino, Invasión Secreta (2023) Temporada 1 Web-DL 4K UHD HDR Latino 1 link mega, Invasión Secreta (2023) Temporada 1 Web-DL 4K UHD HDR Latino 1 link google drive, Invasión Secreta (2023) Temporada 1 Web-DL 4K UHD HDR Latino hd 1080p latino.
Comentarios 0