Invasión el fin de los tiempos (2020) HD 1080p Latino

309 vistas
1 estrella2 estrellas3 estrellas4 estrellas5 estrellas (3 votos, promedio: 5,00 de 5)
Cargando...

Información de Invasión el fin de los tiempos (2020) HD 1080p Latino

Datos de la película

  • Calidad: 1080p
  • Audio: Se especifica abajo de la Sinopsis
  • Subtitulos: Español Latino SRT- FORZADOS SRT
  • Resolución: 1920x716p
  • Formato: MKV
  • Codec: H.264
  • Encoder: Dracarys
  • Mediainfo: Clic para Mostrar Datos Ver
  • Attraction 2 El fin de los tiempos (2019) HD 1080p Latino.mkv
    Format                      : Matroska
    Format version              : Version 4
    File size                   : 4.10 GiB
    Duration                    : 2 h 13 min
    Overall bit rate            : 4 399 kb/s
    Movie name                  : Attraction 2 (2020) CinemaniaHDD.Net
    Encoded date                : UTC 2021-06-10 05:07:48
    Writing application         : mkvmerge v56.1.0 ('My Friend') 64-bit
    Writing library             : libebml v1.4.2 + libmatroska v1.6.4
    Attachments                 : CINEMANIAHD.png

    Video
    ID                          : 1
    Format                      : AVC
    Format/Info                 : Advanced Video Codec
    Format profile              : High@L4.1
    Format settings             : CABAC / 6 Ref Frames
    Format settings, CABAC      : Yes
    Format settings, Reference  : 6 frames
    Codec ID                    : V_MPEG4/ISO/AVC
    Duration                    : 2 h 13 min
    Bit rate                    : 3 500 kb/s
    Width                       : 1 920 pixels
    Height                      : 716 pixels
    Display aspect ratio        : 2.682
    Frame rate mode             : Constant
    Frame rate                  : 24.000 FPS
    Color space                 : YUV
    Chroma subsampling          : 4:2:0
    Bit depth                   : 8 bits
    Scan type                   : Progressive
    Bits/(Pixel*Frame)          : 0.106
    Stream size                 : 3.26 GiB (80%)
    Title                       : HD1080p [CinemaniaHDD]
    Writing library             : x264 core 157 r2935 545de2f
    Encoding settings           : cabac=1 / ref=6 / deblock=1:-1:-1 / analyse=0x3:0x133 / me=umh / subme=9 / psy=1 / psy_rd=1.00:0.15 / mixed_ref=1 / me_range=16 / chroma_me=1 / trellis=2 / 8x8dct=1 / cqm=0 / deadzone=21,11 / fast_pskip=1 / chroma_qp_offset=-3 / threads=22 / lookahead_threads=1 / sliced_threads=0 / nr=0 / decimate=1 / interlaced=0 / bluray_compat=0 / constrained_intra=0 / bframes=3 / b_pyramid=2 / b_adapt=2 / b_bias=0 / direct=3 / weightb=1 / open_gop=0 / weightp=2 / keyint=240 / keyint_min=24 / scenecut=40 / intra_refresh=0 / rc_lookahead=60 / rc=abr / mbtree=1 / bitrate=3500 / ratetol=1.0 / qcomp=0.60 / qpmin=0 / qpmax=69 / qpstep=4 / vbv_maxrate=62500 / vbv_bufsize=78125 / nal_hrd=none / filler=0 / ip_ratio=1.40 / aq=1:1.00
    Default                     : Yes
    Forced                      : Yes
    Color range                 : Limited
    Color primaries             : BT.709
    Transfer characteristics    : BT.709
    Matrix coefficients         : BT.709

    Audio #1
    ID                          : 2
    Format                      : AC-3
    Format/Info                 : Audio Coding 3
    Commercial name             : Dolby Digital
    Codec ID                    : A_AC3
    Duration                    : 2 h 13 min
    Bit rate mode               : Constant
    Bit rate                    : 448 kb/s
    Channel(s)                  : 6 channels
    Channel layout              : L R C LFE Ls Rs
    Sampling rate               : 48.0 kHz
    Frame rate                  : 31.250 FPS (1536 SPF)
    Compression mode            : Lossy
    Delay relative to video     : -5 ms
    Stream size                 : 427 MiB (10%)
    Title                       : Español Latino [CinemaniaHDD]
    Language                    : Spanish
    Service kind                : Complete Main
    Default                     : Yes
    Forced                      : Yes

    Audio #2
    ID                          : 3
    Format                      : AC-3
    Format/Info                 : Audio Coding 3
    Commercial name             : Dolby Digital
    Codec ID                    : A_AC3
    Duration                    : 2 h 13 min
    Bit rate mode               : Constant
    Bit rate                    : 448 kb/s
    Channel(s)                  : 6 channels
    Channel layout              : L R C LFE Ls Rs
    Sampling rate               : 48.0 kHz
    Frame rate                  : 31.250 FPS (1536 SPF)
    Compression mode            : Lossy
    Delay relative to video     : -5 ms
    Stream size                 : 427 MiB (10%)
    Title                       : Ruso [CinemaniaHDD]
    Language                    : Russian
    Service kind                : Complete Main
    Default                     : No
    Forced                      : No

    Text #1
    ID                          : 4
    Format                      : UTF-8
    Codec ID                    : S_TEXT/UTF8
    Codec ID/Info               : UTF-8 Plain Text
    Duration                    : 1 h 20 min
    Bit rate                    : 0 b/s
    Count of elements           : 6
    Stream size                 : 197 Bytes (0%)
    Title                       : Forzados-SRT [CinemaniaHDD]
    Language                    : Spanish
    Default                     : Yes
    Forced                      : Yes

    Text #2
    ID                          : 5
    Format                      : UTF-8
    Codec ID                    : S_TEXT/UTF8
    Codec ID/Info               : UTF-8 Plain Text
    Duration                    : 1 h 57 min
    Bit rate                    : 62 b/s
    Count of elements           : 1286
    Stream size                 : 53.3 KiB (0%)
    Title                       : Español-SRT [CinemaniaHDD]
    Language                    : Spanish
    Default                     : No
    Forced                      : No

    Menu
    00:00:00.000                : Chapter 01
    00:07:12.083                : Chapter 02
    00:15:44.167                : Chapter 03
    00:22:49.000                : Chapter 04
    00:29:34.500                : Chapter 05
    00:38:14.292                : Chapter 06
    00:48:08.917                : Chapter 07
    00:55:27.667                : Chapter 08
    01:02:58.500                : Chapter 09
    01:12:48.458                : Chapter 10
    01:19:51.042                : Chapter 11
    01:27:54.792                : Chapter 12
    01:36:02.083                : Chapter 13
    01:41:48.708                : Chapter 14
    01:51:46.958                : Chapter 15
    01:59:19.708                : Chapter 16

  • Peso: 4.10 GiB

Sinopsis

Descargar Invasión el fin de los tiempos (2020) HD 1080p Latino. Después de la caída de la nave alienígena, esto tomó tres años. La catástrofe cambió la vida de la niña de Chertanovo y cambió para siempre nuestra visión del universo. Parece que esta fue la prueba más grande para todos nosotros. Pero la humanidad aún no sabe que muy pronto tendrá que experimentar una nueva reunión.

Español Latino AC3 5.1 – Ruso AC3 5.1

RESUBIDO!!!

Ficha técnica

Video trailer de la película

Enlaces de descarga

Rip de Bluray

Descargar Invasión el fin de los tiempos (2020) HD 1080p Latino




Aportes de DPeliculasHDmega la pass es:dpeliculashdmega.org Aportes de CinemaniaHD la pass es:cinemaniahdd.com
Guardado en : Acción , Ciencia ficción , HD 1080p

Películas relacionadas

  • Nadie (2021) REMUX 1080p Latino

    Nadie (2021) REMUX 1080p Latino

    2021
    Nadie (2021) REMUX 1080p Latino

    5.0 1h 32m 2021

    Descargar Nadie (2021) REMUX 1080p Latino. Hutch Mansell, un padre de familia que aguanta con resignación...

    Director: Ilya Naishuller

    Género: Acción

    Actores: Yulia Guzhva

  • Ruega por nosotros (2021) HD 1080p Latino

    Ruega por nosotros (2021) HD 1080p Latino

    2021
    Ruega por nosotros (2021) HD 1080p Latino

    5.0 1h 39m 2021

    Descargar Ruega por nosotros (2021) HD 1080p Latino. Se centra en un periodista caído en desgracia que...

    Director: Evan Spiliotopoulos

    Género: HD 1080p

    Actores: William Sadler

  • Godzilla vs Kong (2021) REMUX 4K HDR Latino – CMHDD

    Godzilla vs Kong (2021) REMUX 4K HDR Latino – CMHDD

    2021
    Godzilla vs Kong (2021) REMUX 4K HDR Latino – CMHDD

    5.0 1h 53m 2021

    Godzilla y Kong, dos de las fuerzas más poderosas de un planeta habitado por todo tipo de aterradoras...

    Director: Thomas Robinson Harper

    Género: Acción

    Actores: Victoria Liu

Invasión el fin de los tiempos (2020) HD 1080p Latino pelicula full hd, Invasión el fin de los tiempos (2020) HD 1080p Latino mega latino, Invasión el fin de los tiempos (2020) HD 1080p Latino 4k latino, Invasión el fin de los tiempos (2020) HD 1080p Latino pelicula completa, Invasión el fin de los tiempos (2020) HD 1080p Latino descargar gratis, descargar Invasión el fin de los tiempos (2020) HD 1080p Latino pelicula latino, Invasión el fin de los tiempos (2020) HD 1080p Latino 1 link mega, Invasión el fin de los tiempos (2020) HD 1080p Latino 1 link google drive, Invasión el fin de los tiempos (2020) HD 1080p Latino hd 1080p latino.
Comentarios 1
  • pedro - 09 junio, 2020

    la espere por varios mese que saliera y como siempre los primeros, CINEMANIA, muchas gracias