×

¿Problemas para descargar con Mozilla, EDGE? Deshabilita la opción "Abrir vinculos en una pestaña nueva" tal como lo muestra ésta imagen.

Into the Wild (2007) REMUX 1080p Latino

671 vistas

Información de Into the Wild (2007) REMUX 1080p Latino

Datos de la película

  • Calidad: Full 1080p
  • Audio: Español Latino AC3 5.1 BLURAY - Ingles DTS 5.1 BLURAY
  • Subtitulos: Español Latino PGS - Ingles PGS
  • Resolución: 1920x1080
  • Formato: MKV
  • Codec: H.264
  • Encoder: cinemaniahdd
  • Mediainfo: Clic para Mostrar Datos Ver
  • Into the Wild (2007) REMUX 1080p Latino.mkv
    Format                      : Matroska
    Format version              : Version 4
    File size                   : 35.9 GiB
    Duration                    : 2 h 28 min
    Overall bit rate mode       : Variable
    Overall bit rate            : 34.6 Mb/s
    Movie name                  : Into the Wild (2007) - CinemaniaHDD.Net
    Encoded date                : UTC 2020-02-27 03:16:34
    Writing application         : mkvmerge v42.0.0 ('Overtime') 64-bit
    Writing library             : libebml v1.3.10 + libmatroska v1.5.2

    Video
    ID                          : 1
    Format                      : AVC
    Format/Info                 : Advanced Video Codec
    Format profile              : High@L4.1
    Format settings             : CABAC / 2 Ref Frames
    Format settings, CABAC      : Yes
    Format settings, ReFrames   : 2 frames
    Format settings, GOP        : M=1, N=10
    Codec ID                    : V_MPEG4/ISO/AVC
    Duration                    : 2 h 28 min
    Bit rate mode               : Variable
    Bit rate                    : 31.8 Mb/s
    Width                       : 1 920 pixels
    Height                      : 1 080 pixels
    Display aspect ratio        : 16:9
    Frame rate mode             : Constant
    Frame rate                  : 23.976 (24000/1001) FPS
    Color space                 : YUV
    Chroma subsampling          : 4:2:0
    Bit depth                   : 8 bits
    Scan type                   : Progressive
    Bits/(Pixel*Frame)          : 0.640
    Stream size                 : 33.0 GiB (92%)
    Title                       : CinemaniaHDD
    Language                    : English
    Default                     : Yes
    Forced                      : No

    Audio #1
    ID                          : 2
    Format                      : AC-3
    Format/Info                 : Audio Coding 3
    Commercial name             : Dolby Digital
    Codec ID                    : A_AC3
    Duration                    : 2 h 28 min
    Bit rate mode               : Constant
    Bit rate                    : 640 kb/s
    Channel(s)                  : 6 channels
    Channel layout              : L R C LFE Ls Rs
    Sampling rate               : 48.0 kHz
    Frame rate                  : 31.250 FPS (1536 SPF)
    Bit depth                   : 16 bits
    Compression mode            : Lossy
    Stream size                 : 679 MiB (2%)
    Title                       : Español latino [CinemaniaHDD]
    Language                    : Spanish
    Service kind                : Complete Main
    Default                     : Yes
    Forced                      : No

    Audio #2
    ID                          : 3
    Format                      : DTS XLL
    Format/Info                 : Digital Theater Systems
    Commercial name             : DTS-HD Master Audio
    Codec ID                    : A_DTS
    Duration                    : 2 h 28 min
    Bit rate mode               : Variable
    Bit rate                    : 2 180 kb/s
    Channel(s)                  : 6 channels
    Channel layout              : C L R Ls Rs LFE
    Sampling rate               : 48.0 kHz
    Frame rate                  : 93.750 FPS (512 SPF)
    Bit depth                   : 16 bits
    Compression mode            : Lossless
    Stream size                 : 2.26 GiB (6%)
    Title                       : Inglés [CinemaniaHDD]
    Language                    : English
    Default                     : No
    Forced                      : No

    Text #1
    ID                          : 4
    Format                      : PGS
    Muxing mode                 : zlib
    Codec ID                    : S_HDMV/PGS
    Codec ID/Info               : Picture based subtitle format used on BDs/HD-DVDs
    Duration                    : 2 h 22 min
    Bit rate                    : 3 111 b/s
    Count of elements           : 276
    Stream size                 : 3.18 MiB (0%)
    Title                       : Forzados [CinemaniaHDD]
    Language                    : Spanish
    Default                     : Yes
    Forced                      : Yes

    Text #2
    ID                          : 5
    Format                      : PGS
    Muxing mode                 : zlib
    Codec ID                    : S_HDMV/PGS
    Codec ID/Info               : Picture based subtitle format used on BDs/HD-DVDs
    Duration                    : 2 h 22 min
    Bit rate                    : 24.3 kb/s
    Count of elements           : 2340
    Stream size                 : 24.8 MiB (0%)
    Title                       : Español latino [CinemaniaHDD]
    Language                    : Spanish
    Default                     : No
    Forced                      : No

    Menu
    00:00:00.000                : en:A New Home
    00:08:18.331                : en:The Graduate
    00:13:48.786                : en:The Cut
    00:21:41.842                : en:Two New Friends
    00:28:14.776                : en:Adolescence
    00:38:14.626                : en:Part-Time
    00:43:05.583                : en:Family Quarrels
    00:52:25.559                : en:En Route
    01:02:52.519                : en:Manhood
    01:09:59.612                : en:Among Brothers
    01:14:31.884                : en:The Hunt
    01:22:24.439                : en:The Little Hippie
    01:30:23.877                : en:To Alaska
    01:46:00.479                : en:The Old Ron
    01:51:49.828                : en:Wilderness
    02:04:27.877                : en:Towards The Goal
    02:15:31.498                : en:End Credits

     

  • Peso: 35.9 GiB

Sinopsis

A principios de los años noventa, el joven e idealista Christopher McCandless adopta el nombre de Alexander Supertramp, deja sus posesiones y sus ahorros a la beneficencia y abandona el mundo civilizado con rumbo a la salvaje Alaska para entrar en contacto con la Naturaleza y descubrir el verdadero sentido de la vida. Adaptación del best-seller de Jon Krakauer, basado en las notas del diario de McCandless.

Ficha técnica

Video trailer de la película

Enlaces de descarga

Rip de Bluray

Descargar Into the Wild (2007) REMUX 1080p Latino


Aportes de DPeliculasHDmega la pass es:dpeliculashdmega.org Aportes de CinemaniaHD la pass es:cinemaniahdd.com
Guardado en : Aventura , Drama , Remux

Películas relacionadas

descargar Into the Wild (2007) REMUX 1080p Latino Full 1080p 1080p gratis, Into the Wild (2007) REMUX 1080p Latino Full 1080p mega 1 link, Into the Wild (2007) REMUX 1080p Latino Full 1080p pelicula completa, descargar Into the Wild (2007) REMUX 1080p Latino Full 1080p gratis en mega.

Into the Wild (2007) REMUX 1080p Latino pelicula full hd, Into the Wild (2007) REMUX 1080p Latino mega latino, Into the Wild (2007) REMUX 1080p Latino 4k latino, Into the Wild (2007) REMUX 1080p Latino pelicula completa, Into the Wild (2007) REMUX 1080p Latino descargar gratis, descargar Into the Wild (2007) REMUX 1080p Latino pelicula latino, Into the Wild (2007) REMUX 1080p Latino 1 link mega, Into the Wild (2007) REMUX 1080p Latino 1 link google drive, Into the Wild (2007) REMUX 1080p Latino hd 1080p latino.
Comentarios 3
  • galaxyo - 23 mayo, 2021

    Solo esta disponible esta version para los VIP? la version remux si cuenta con paste publico pero pesa 3 veces mas que esta y la de aqui no tiene acceso publico

    • Dracarys - 23 mayo, 2021

      Solo VIP

  • Fredy14 - 22 mayo, 2021

    Muchas gracias, por compartir. Excelente calidad y saludos desde Argentina👍🎥😎