Into the Wild (2007) PLACEBO 1080p Latino

701 vistas
1 estrella2 estrellas3 estrellas4 estrellas5 estrellas (1 votos, promedio: 5,00 de 5)
Cargando...

Información de Into the Wild (2007) PLACEBO 1080p Latino

Datos de la película

  • Calidad: Full 1080p
  • Audio: Español Latino AC3 5.1 BLURAY - Ingles DTS 5.1 BLURAY
  • Subtitulos: Español Latino SRT- FORZADOS SRT
  • Resolución: 1920x1080
  • Formato: MKV
  • Codec: H.264
  • Encoder: cinemaniahdd
  • Mediainfo: Clic para Mostrar Datos Ver
  • Into the Wild (2007) PLACEBO 1080p Latino.mkv
    Format                      : Matroska
    Format version              : Version 4
    File size                   : 11.1 GiB
    Duration                    : 2 h 28 min
    Overall bit rate            : 10.7 Mb/s
    Movie name                  : Into the Wild (2007) - CinemaniaHDD.Net
    Encoded date                : UTC 2020-02-27 21:30:14
    Writing application         : mkvmerge v42.0.0 ('Overtime') 64-bit
    Writing library             : libebml v1.3.10 + libmatroska v1.5.2

    Video
    ID                          : 1
    Format                      : AVC
    Format/Info                 : Advanced Video Codec
    Format profile              : High@L4.1
    Format settings             : CABAC / 4 Ref Frames
    Format settings, CABAC      : Yes
    Format settings, ReFrames   : 4 frames
    Codec ID                    : V_MPEG4/ISO/AVC
    Duration                    : 2 h 28 min
    Bit rate                    : 8 584 kb/s
    Width                       : 1 920 pixels
    Height                      : 1 080 pixels
    Display aspect ratio        : 16:9
    Frame rate mode             : Constant
    Frame rate                  : 23.976 (24000/1001) FPS
    Color space                 : YUV
    Chroma subsampling          : 4:2:0
    Bit depth                   : 8 bits
    Scan type                   : Progressive
    Bits/(Pixel*Frame)          : 0.173
    Stream size                 : 8.89 GiB (80%)
    Title                       : CinemaniaHDD
    Writing library             : x264 core 157 r2935 545de2f
    Encoding settings           : cabac=1 / ref=4 / deblock=1:0:0 / analyse=0x3:0x133 / me=tesa / subme=11 / psy=1 / psy_rd=1.00:0.00 / mixed_ref=1 / me_range=24 / chroma_me=1 / trellis=2 / 8x8dct=1 / cqm=0 / deadzone=21,11 / fast_pskip=0 / chroma_qp_offset=-2 / threads=34 / lookahead_threads=8 / sliced_threads=0 / nr=0 / decimate=1 / interlaced=0 / bluray_compat=0 / constrained_intra=0 / bframes=16 / b_pyramid=2 / b_adapt=2 / b_bias=0 / direct=3 / weightb=1 / open_gop=0 / weightp=2 / keyint=240 / keyint_min=24 / scenecut=40 / intra_refresh=0 / rc_lookahead=60 / rc=crf / mbtree=1 / crf=20.0 / qcomp=0.60 / qpmin=0 / qpmax=69 / qpstep=4 / vbv_maxrate=62500 / vbv_bufsize=78125 / crf_max=0.0 / nal_hrd=none / filler=0 / ip_ratio=1.40 / aq=1:1.00
    Default                     : Yes
    Forced                      : No
    Color range                 : Limited
    Color primaries             : BT.709
    Transfer characteristics    : BT.709
    Matrix coefficients         : BT.709

    Audio #1
    ID                          : 2
    Format                      : AC-3
    Format/Info                 : Audio Coding 3
    Commercial name             : Dolby Digital
    Codec ID                    : A_AC3
    Duration                    : 2 h 28 min
    Bit rate mode               : Constant
    Bit rate                    : 640 kb/s
    Channel(s)                  : 6 channels
    Channel layout              : L R C LFE Ls Rs
    Sampling rate               : 48.0 kHz
    Frame rate                  : 31.250 FPS (1536 SPF)
    Bit depth                   : 16 bits
    Compression mode            : Lossy
    Delay relative to video     : -5 ms
    Stream size                 : 679 MiB (6%)
    Title                       : Español latino [CinemaniaHDD]
    Language                    : Spanish
    Service kind                : Complete Main
    Default                     : Yes
    Forced                      : No

    Audio #2
    ID                          : 3
    Format                      : DTS
    Format/Info                 : Digital Theater Systems
    Codec ID                    : A_DTS
    Duration                    : 2 h 28 min
    Bit rate mode               : Constant
    Bit rate                    : 1 509 kb/s
    Channel(s)                  : 6 channels
    Channel layout              : C L R Ls Rs LFE
    Sampling rate               : 48.0 kHz
    Frame rate                  : 93.750 FPS (512 SPF)
    Bit depth                   : 24 bits
    Compression mode            : Lossy
    Delay relative to video     : -5 ms
    Stream size                 : 1.56 GiB (14%)
    Title                       : Inglés [CinemaniaHDD]
    Language                    : English
    Default                     : No
    Forced                      : No

    Text #1
    ID                          : 4
    Format                      : PGS
    Muxing mode                 : zlib
    Codec ID                    : S_HDMV/PGS
    Codec ID/Info               : Picture based subtitle format used on BDs/HD-DVDs
    Duration                    : 2 h 22 min
    Bit rate                    : 3 111 b/s
    Count of elements           : 276
    Stream size                 : 3.18 MiB (0%)
    Title                       : Forzados [CinemaniaHDD]
    Language                    : Spanish
    Default                     : Yes
    Forced                      : Yes

    Text #2
    ID                          : 5
    Format                      : PGS
    Muxing mode                 : zlib
    Codec ID                    : S_HDMV/PGS
    Codec ID/Info               : Picture based subtitle format used on BDs/HD-DVDs
    Duration                    : 2 h 22 min
    Bit rate                    : 24.3 kb/s
    Count of elements           : 2340
    Stream size                 : 24.8 MiB (0%)
    Title                       : Español latino [CinemaniaHDD]
    Language                    : Spanish
    Default                     : No
    Forced                      : No

    Menu
    00:00:00.000                : en:A New Home
    00:08:18.331                : en:The Graduate
    00:13:48.786                : en:The Cut
    00:21:41.842                : en:Two New Friends
    00:28:14.776                : en:Adolescence
    00:38:14.626                : en:Part-Time
    00:43:05.583                : en:Family Quarrels
    00:52:25.559                : en:En Route
    01:02:52.519                : en:Manhood
    01:09:59.612                : en:Among Brothers
    01:14:31.884                : en:The Hunt
    01:22:24.439                : en:The Little Hippie
    01:30:23.877                : en:To Alaska
    01:46:00.479                : en:The Old Ron
    01:51:49.828                : en:Wilderness
    02:04:27.877                : en:Towards The Goal
    02:15:31.498                : en:End Credits

     

  • Peso: 11.1 GiB

Sinopsis

A principios de los años noventa, el joven e idealista Christopher McCandless adopta el nombre de Alexander Supertramp, deja sus posesiones y sus ahorros a la beneficencia y abandona el mundo civilizado con rumbo a la salvaje Alaska para entrar en contacto con la Naturaleza y descubrir el verdadero sentido de la vida. Adaptación del best-seller de Jon Krakauer, basado en las notas del diario de McCandless.

Ficha técnica

Video trailer de la película

Enlaces de descarga

Rip de Bluray

Descargar Into the Wild (2007) PLACEBO 1080p Latino




Aportes de DPeliculasHDmega la pass es:dpeliculashdmega.org Aportes de CinemaniaHD la pass es:cinemaniahdd.com

Películas relacionadas

  • Beforeigners (2020) Temporada 1 HBOGO WEB-DL 1080p

    Beforeigners (2020) Temporada 1 HBOGO WEB-DL 1080p

    2019
    Beforeigners (2020) Temporada 1 HBOGO WEB-DL 1080p

    5.0 0h 50m 2019

    Gente de la Edad de Piedra, la Era Vikinga y finales del siglo XIX comienzan a aparecer inexplicablemente...

    Director: Eilif Skodvin

    Género: Drama

    Actores: Stig R. Amdam

  • Van Helsing (2004) 1080p Latino

    Van Helsing (2004) 1080p Latino

    2004
    Van Helsing (2004) 1080p Latino

    0.0 2h 11m 2004

    Descargar Van Helsing (2004) 1080p Latino. Siglo XIX. En medio de los montes de los Cárpatos está la...

    Director: Sylvie Chesneau

    Género: Acción

    Actores: Zuzana Durdinová

  • Van Helsing (2004) Full HD 1080p Latino

    Van Helsing (2004) Full HD 1080p Latino

    2004
    Van Helsing (2004) Full HD 1080p Latino

    4.9 2h 11m 2004

    Descargar Van Helsing (2004) Full HD 1080p Latino. Siglo XIX. En medio de los montes de los Cárpatos...

    Director: Sylvie Chesneau

    Género: Acción

    Actores: Will Kemp

  • Van Helsing (2004) REMUX 1080p Latino

    Van Helsing (2004) REMUX 1080p Latino

    2004
    Van Helsing (2004) REMUX 1080p Latino

    5.0 2h 11m 2004

    Descargar Van Helsing (2004) REMUX 1080p Latino. Siglo XIX. En medio de los montes de los Cárpatos está...

    Director: Sylvie Chesneau

    Género: Acción

    Actores: Zuzana Durdinová

  • Van Helsing (2004) 4K UHD HDR Latino

    Van Helsing (2004) 4K UHD HDR Latino

    2004
    Van Helsing (2004) 4K UHD HDR Latino

    0.0 2h 11m 2004

    Descargar Van Helsing (2004) 4K UHD HDR Latino. Siglo XIX. En medio de los montes de los Cárpatos está...

    Director: Sylvie Chesneau

    Género: Acción

    Actores: Zuzana Durdinová

Comentarios 0