Rompe El Paso (2020) REMUX 1080p Latino

70 vistas
1 estrella2 estrellas3 estrellas4 estrellas5 estrellas (Ninguna valoración todavía)
Cargando...

Información de Rompe El Paso (2020) REMUX 1080p Latino

Datos de la película

  • Calidad: Full 1080p
  • Audio: Se especifica abajo de la Sinopsis
  • Subtitulos: Español Latino SRT- FORZADOS SRT
  • Resolución: 1920x1080p
  • Formato: MKV
  • Codec: H.264
  • Encoder: CinemaniaHD
  • Mediainfo: Clic para Mostrar Datos Ver
  • Rompe El Paso (2020) REMUX 1080p Latino.mkv
    Format                      : Matroska
    Format version              : Version 4
    File size                   : 17.7 GiB
    Duration                    : 1 h 41 min
    Overall bit rate mode       : Variable
    Overall bit rate            : 25.1 Mb/s
    Movie name                  : Into The Beat: Dein Herz Tanzt (2020) CinemaniaHDD.Net
    Encoded date                : UTC 2021-04-22 03:21:48
    Writing application         : mkvmerge v51.0.0 ('I Wish') 64-bit
    Writing library             : libebml v1.4.0 + libmatroska v1.6.2
    Attachments                 : CINEMANIAHD.png

    Video
    ID                          : 1
    Format                      : AVC
    Format/Info                 : Advanced Video Codec
    Format profile              : High@L4.1
    Format settings             : CABAC / 4 Ref Frames
    Format settings, CABAC      : Yes
    Format settings, Reference  : 4 frames
    Codec ID                    : V_MPEG4/ISO/AVC
    Duration                    : 1 h 41 min
    Bit rate mode               : Variable
    Bit rate                    : 21.9 Mb/s
    Maximum bit rate            : 36.0 Mb/s
    Width                       : 1 920 pixels
    Height                      : 1 080 pixels
    Display aspect ratio        : 16:9
    Frame rate mode             : Constant
    Frame rate                  : 24.000 FPS
    Color space                 : YUV
    Chroma subsampling          : 4:2:0
    Bit depth                   : 8 bits
    Scan type                   : Progressive
    Bits/(Pixel*Frame)          : 0.441
    Stream size                 : 15.5 GiB (87%)
    Title                       : REMUX HD1080p [CinemaniaHDD]
    Default                     : Yes
    Forced                      : Yes

    Audio #1
    ID                          : 2
    Format                      : AC-3
    Format/Info                 : Audio Coding 3
    Commercial name             : Dolby Digital
    Codec ID                    : A_AC3
    Duration                    : 1 h 41 min
    Bit rate mode               : Constant
    Bit rate                    : 640 kb/s
    Channel(s)                  : 6 channels
    Channel layout              : L R C LFE Ls Rs
    Sampling rate               : 48.0 kHz
    Frame rate                  : 31.250 FPS (1536 SPF)
    Compression mode            : Lossy
    Stream size                 : 463 MiB (3%)
    Title                       : Español Latino [CinemaniaHDD]
    Language                    : Spanish
    Service kind                : Complete Main
    Default                     : Yes
    Forced                      : Yes

    Audio #2
    ID                          : 3
    Format                      : DTS XLL
    Format/Info                 : Digital Theater Systems
    Commercial name             : DTS-HD Master Audio
    Codec ID                    : A_DTS
    Duration                    : 1 h 41 min
    Bit rate mode               : Variable
    Bit rate                    : 1 882 kb/s
    Channel(s)                  : 6 channels
    Channel layout              : C L R Ls Rs LFE
    Sampling rate               : 48.0 kHz
    Frame rate                  : 93.750 FPS (512 SPF)
    Bit depth                   : 16 bits
    Compression mode            : Lossless
    Stream size                 : 1.33 GiB (7%)
    Title                       : Aleman [CinemaniaHDD]
    Language                    : German
    Default                     : No
    Forced                      : No

    Audio #3
    ID                          : 4
    Format                      : E-AC-3
    Format/Info                 : Enhanced AC-3
    Commercial name             : Dolby Digital Plus
    Codec ID                    : A_EAC3
    Duration                    : 1 h 41 min
    Bit rate mode               : Constant
    Bit rate                    : 640 kb/s
    Channel(s)                  : 6 channels
    Channel layout              : L R C LFE Ls Rs
    Sampling rate               : 48.0 kHz
    Frame rate                  : 31.250 FPS (1536 SPF)
    Compression mode            : Lossy
    Delay relative to video     : 16 ms
    Stream size                 : 463 MiB (3%)
    Title                       : Español Latino EAC3 [CinemaniaHDD]
    Language                    : Spanish
    Service kind                : Complete Main
    Default                     : No
    Forced                      : No

    Text #1
    ID                          : 5
    Format                      : UTF-8
    Codec ID                    : S_TEXT/UTF8
    Codec ID/Info               : UTF-8 Plain Text
    Duration                    : 1 h 39 min
    Bit rate                    : 1 b/s
    Count of elements           : 73
    Stream size                 : 1.19 KiB (0%)
    Title                       : Forzados-SRT [CinemaniaHDD]
    Language                    : Spanish
    Default                     : Yes
    Forced                      : Yes

    Text #2
    ID                          : 6
    Format                      : UTF-8
    Codec ID                    : S_TEXT/UTF8
    Codec ID/Info               : UTF-8 Plain Text
    Duration                    : 1 h 39 min
    Bit rate                    : 25 b/s
    Count of elements           : 800
    Stream size                 : 18.5 KiB (0%)
    Title                       : Español-SRT [CinemaniaHDD]
    Language                    : Spanish
    Default                     : No
    Forced                      : No

    Text #3
    ID                          : 7
    Format                      : UTF-8
    Codec ID                    : S_TEXT/UTF8
    Codec ID/Info               : UTF-8 Plain Text
    Duration                    : 1 h 34 min
    Bit rate                    : 28 b/s
    Count of elements           : 825
    Stream size                 : 19.7 KiB (0%)
    Title                       : Ingles-SRT [CinemaniaHDD]
    Language                    : English
    Default                     : No
    Forced                      : No

    Menu
    00:00:00.000                : de:00:00:00.000
    00:07:55.667                : de:00:07:55.667
    00:15:29.625                : de:00:15:29.625
    00:25:02.208                : de:00:25:02.208
    00:31:53.375                : de:00:31:53.375
    00:38:13.708                : de:00:38:13.708
    00:45:32.000                : de:00:45:32.000
    00:53:02.500                : de:00:53:02.500
    01:01:16.250                : de:01:01:16.250
    01:10:05.208                : de:01:10:05.208
    01:17:33.208                : de:01:17:33.208
    01:25:31.417                : de:01:25:31.417

  • Peso: 17.7 GiB

Sinopsis

Descargar Rompe El Paso (2020) REMUX 1080p Latino. Una joven bailarina de ballet descubre el hip-hop por casualidad y se enfrenta a un dilema imposible: seguir los pasos de sus padres o dedicarse a su nueva pasión.

Audios Español Latino EAC3 + AC3 5.1 NF – Aleman DTS-HD 5.1 Bluray

Ficha técnica

  • Titulo original: Into the Beat - Dein Herz tanzt
  • Fecha de lanzamiento: 16-07-2020 (Germany)
  • Director: Stefan Westerwelle
  • Género: Drama, Remux, Romance
  • Puntuación: 0.0 0 votos
  • Duración:
    1h 38m

Video trailer de la película

Enlaces de descarga

Rip de Bluray

Descargar Rompe El Paso (2020) REMUX 1080p Latino




Aportes de DPeliculasHDmega la pass es:dpeliculashdmega.org Aportes de CinemaniaHD la pass es:cinemaniahdd.com
Guardado en : Drama , Remux , Romance

Películas relacionadas

Rompe El Paso (2020) REMUX 1080p Latino pelicula full hd, Rompe El Paso (2020) REMUX 1080p Latino mega latino, Rompe El Paso (2020) REMUX 1080p Latino 4k latino, Rompe El Paso (2020) REMUX 1080p Latino pelicula completa, Rompe El Paso (2020) REMUX 1080p Latino descargar gratis, descargar Rompe El Paso (2020) REMUX 1080p Latino pelicula latino, Rompe El Paso (2020) REMUX 1080p Latino 1 link mega, Rompe El Paso (2020) REMUX 1080p Latino 1 link google drive, Rompe El Paso (2020) REMUX 1080p Latino hd 1080p latino.
Comentarios 0