Una entrevista con Dios (2018) REMUX 1080p Latino

659 vistas
1 estrella2 estrellas3 estrellas4 estrellas5 estrellas (2 votos, promedio: 3,00 de 5)
Cargando...

Información de Una entrevista con Dios (2018) REMUX 1080p Latino

Datos de la película

  • Calidad: Full 1080p
  • Audio: Español Latino AC3 5.1 DVD - Ingles DTS 5.1 BLURAY
  • Subtitulos: Español Latino SRT - Ingles SRT
  • Resolución: 1920x1080p
  • Formato: MKV
  • Codec: H.264
  • Encoder: CinefiloCool
  • Mediainfo: Clic para Mostrar Datos Ver
  • Una Entrevista con Dios (2018) REMUX 1080p Latino.mkv
    Format                      : Matroska
    Format version              : Version 4
    File size                   : 13.8 GiB
    Duration                    : 1 h 36 min
    Overall bit rate mode       : Variable
    Overall bit rate            : 20.4 Mb/s
    Movie name                  : CinemaniaHDD.Net
    Encoded date                : UTC 2019-05-12 23:42:27
    Writing application         : mkvmerge v30.1.0 ('Forever And More') 64-bit
    Writing library             : libebml v1.3.6 + libmatroska v1.4.9
    Attachments                 : CINEMANIAHD.png

    Video
    ID                          : 1
    Format                      : AVC
    Format/Info                 : Advanced Video Codec
    Format profile              : High@L4.1
    Format settings             : CABAC / 2 Ref Frames
    Format settings, CABAC      : Yes
    Format settings, ReFrames   : 2 frames
    Codec ID                    : V_MPEG4/ISO/AVC
    Duration                    : 1 h 36 min
    Bit rate mode               : Variable
    Bit rate                    : 18.1 Mb/s
    Maximum bit rate            : 35.2 Mb/s
    Width                       : 1 920 pixels
    Height                      : 1 080 pixels
    Display aspect ratio        : 16:9
    Frame rate mode             : Constant
    Frame rate                  : 23.976 (24000/1001) FPS
    Color space                 : YUV
    Chroma subsampling          : 4:2:0
    Bit depth                   : 8 bits
    Scan type                   : Progressive
    Bits/(Pixel*Frame)          : 0.364
    Stream size                 : 12.2 GiB (89%)
    Title                       : Full HD1080p [Remux]
    Default                     : Yes
    Forced                      : No

    Audio #1
    ID                          : 2
    Format                      : AC-3
    Format/Info                 : Audio Coding 3
    Commercial name             : Dolby Digital
    Codec ID                    : A_AC3
    Duration                    : 1 h 36 min
    Bit rate mode               : Constant
    Bit rate                    : 384 kb/s
    Channel(s)                  : 6 channels
    Channel layout              : L R C LFE Ls Rs
    Sampling rate               : 48.0 kHz
    Frame rate                  : 31.250 FPS (1536 SPF)
    Bit depth                   : 16 bits
    Compression mode            : Lossy
    Stream size                 : 266 MiB (2%)
    Title                       : AC3_5.1_DVD_Esp
    Language                    : Spanish
    Service kind                : Complete Main
    Default                     : Yes
    Forced                      : Yes

    Audio #2
    ID                          : 3
    Format                      : DTS XLL
    Format/Info                 : Digital Theater Systems
    Commercial name             : DTS-HD Master Audio
    Codec ID                    : A_DTS
    Duration                    : 1 h 36 min
    Bit rate mode               : Variable
    Bit rate                    : 1 901 kb/s
    Channel(s)                  : 6 channels
    Channel layout              : C L R Ls Rs LFE
    Sampling rate               : 48.0 kHz
    Frame rate                  : 93.750 FPS (512 SPF)
    Bit depth                   : 16 bits
    Compression mode            : Lossless
    Stream size                 : 1.28 GiB (9%)
    Title                       : DTS-HD_5.1_Bluray_Eng
    Language                    : English
    Default                     : No
    Forced                      : No

    Text #1
    ID                          : 4
    Format                      : UTF-8
    Codec ID                    : S_TEXT/UTF8
    Codec ID/Info               : UTF-8 Plain Text
    Duration                    : 1 h 31 min
    Bit rate                    : 74 b/s
    Count of elements           : 1507
    Stream size                 : 50.0 KiB (0%)
    Title                       : Sub_Esp
    Language                    : Spanish
    Default                     : No
    Forced                      : No

    Text #2
    ID                          : 5
    Format                      : UTF-8
    Codec ID                    : S_TEXT/UTF8
    Codec ID/Info               : UTF-8 Plain Text
    Duration                    : 1 h 35 min
    Bit rate                    : 72 b/s
    Count of elements           : 1467
    Stream size                 : 50.3 KiB (0%)
    Title                       : Sub_Eng
    Language                    : English
    Default                     : No
    Forced                      : No

    Menu
    00:00:00.000                : en:Chapter 01
    00:07:24.068                : en:Chapter 02
    00:16:10.344                : en:Chapter 03
    00:26:34.050                : en:Chapter 04
    00:34:11.424                : en:Chapter 05
    00:40:41.605                : en:Chapter 06
    00:47:49.992                : en:Chapter 07
    00:55:50.930                : en:Chapter 08
    01:02:33.249                : en:Chapter 09
    01:10:34.855                : en:Chapter 10
    01:19:47.032                : en:Chapter 11
    01:27:28.576                : en:Chapter 12

  • Peso: 13.8 GiB

Sinopsis

Descargar Una entrevista con Dios (2018) REMUX 1080p Latino. Un ex veterano de guerra y actualmente periodista comienza una entrevista con alguien que dice ser Dios.

Ficha técnica

  • Titulo original: An Interview with God
  • Fecha de lanzamiento: 20-08-2018 (United States of America)
  • Director: Perry Lang
  • Género: Drama, Misterio, Remux
  • Puntuación: 3.0 2 votos
  • Duración:
    1h 37m

Video trailer de la película

Enlaces de descarga

Rip de Bluray

Descargar Una entrevista con Dios (2018) REMUX 1080p Latino




Aportes de DPeliculasHDmega la pass es:dpeliculashdmega.org Aportes de CinemaniaHD la pass es:cinemaniahdd.com
Guardado en : Drama , Misterio , Remux

Películas relacionadas

Una entrevista con Dios (2018) REMUX 1080p Latino pelicula full hd, Una entrevista con Dios (2018) REMUX 1080p Latino mega latino, Una entrevista con Dios (2018) REMUX 1080p Latino 4k latino, Una entrevista con Dios (2018) REMUX 1080p Latino pelicula completa, Una entrevista con Dios (2018) REMUX 1080p Latino descargar gratis, descargar Una entrevista con Dios (2018) REMUX 1080p Latino pelicula latino, Una entrevista con Dios (2018) REMUX 1080p Latino 1 link mega, Una entrevista con Dios (2018) REMUX 1080p Latino 1 link google drive, Una entrevista con Dios (2018) REMUX 1080p Latino hd 1080p latino.
Comentarios 0