×

¿Problemas para descargar con Mozilla, EDGE? Deshabilita la opción "Abrir vinculos en una pestaña nueva" tal como lo muestra ésta imagen.

Intermission (2003) WEB-DL 1080p SUB

307 vistas

Información de Intermission (2003) WEB-DL 1080p SUB

Datos de la película

  • Calidad: WEBDL
  • Audio: Se especifica abajo de la Sinopsis
  • Subtitulos: Español Latino SRT - Ingles SRT
  • Resolución: 1920x1080p
  • Formato: MKV
  • Codec: H.264
  • Encoder: CinefiloCool
  • Mediainfo: Clic para Mostrar Datos Ver
  • Intermission (2004) WEB-DL 1080p SUB.mkv
    Format                      : Matroska
    Format version              : Version 4
    File size                   : 4.28 GiB
    Duration                    : 1 h 46 min
    Overall bit rate            : 5 771 kb/s
    Movie name                  : Intermission (2004) CinemaniaHDD.Net
    Encoded date                : UTC 2023-04-14 04:22:16
    Writing application         : mkvmerge v56.1.0 ('My Friend') 64-bit
    Writing library             : libebml v1.4.2 + libmatroska v1.6.4
    Attachments                 : CINEMANIAHD.png

    Video
    ID                          : 1
    Format                      : AVC
    Format/Info                 : Advanced Video Codec
    Format profile              : High@L4
    Format settings             : CABAC / 4 Ref Frames
    Format settings, CABAC      : Yes
    Format settings, Reference  : 4 frames
    Codec ID                    : V_MPEG4/ISO/AVC
    Duration                    : 1 h 46 min
    Bit rate                    : 5 705 kb/s
    Width                       : 1 920 pixels
    Height                      : 1 080 pixels
    Display aspect ratio        : 16:9
    Frame rate mode             : Constant
    Frame rate                  : 23.976 (24000/1001) FPS
    Color space                 : YUV
    Chroma subsampling          : 4:2:0
    Bit depth                   : 8 bits
    Scan type                   : Progressive
    Bits/(Pixel*Frame)          : 0.115
    Stream size                 : 4.23 GiB (99%)
    Title                       : WEB HD1080p [CinemaniaHDD]
    Default                     : Yes
    Forced                      : Yes

    Audio
    ID                          : 2
    Format                      : AAC LC SBR
    Format/Info                 : Advanced Audio Codec Low Complexity with Spectral Band Replication
    Commercial name             : HE-AAC
    Format settings             : Explicit
    Codec ID                    : A_AAC-2
    Duration                    : 1 h 46 min
    Bit rate                    : 64.0 kb/s
    Channel(s)                  : 2 channels
    Channel layout              : L R
    Sampling rate               : 48.0 kHz
    Frame rate                  : 23.438 FPS (2048 SPF)
    Compression mode            : Lossy
    Stream size                 : 48.6 MiB (1%)
    Title                       : Ingles [CinemaniaHDD]
    Language                    : English
    Default                     : Yes
    Forced                      : Yes

    Text #1
    ID                          : 3
    Format                      : UTF-8
    Codec ID                    : S_TEXT/UTF8
    Codec ID/Info               : UTF-8 Plain Text
    Duration                    : 1 h 41 min
    Bit rate                    : 52 b/s
    Count of elements           : 1339
    Stream size                 : 39.4 KiB (0%)
    Title                       : Español-SRT [CinemaniaHDD]
    Language                    : Spanish
    Default                     : Yes
    Forced                      : Yes

    Text #2
    ID                          : 4
    Format                      : UTF-8
    Codec ID                    : S_TEXT/UTF8
    Codec ID/Info               : UTF-8 Plain Text
    Duration                    : 1 h 41 min
    Bit rate                    : 64 b/s
    Count of elements           : 1725
    Stream size                 : 47.9 KiB (0%)
    Title                       : Ingles-SRT [CinemaniaHDD]
    Language                    : English
    Default                     : No
    Forced                      : No

  • Peso: 4.28 GiB

Sinopsis

Descargar Intermission (2003) WEB-DL 1080p SUB. La rotura de una pareja hace mezclarse a gente y eventos aparentemente sin relación. Actos delictivos y relaciones personales en una comedia urbana ambientada en el Dublín de nuestros días.

Audio Ingles AAC 2.0 WEB-DL 

Ficha técnica

Video trailer de la película

Enlaces de descarga

Rip de Bluray

Descargar Intermission (2003) WEB-DL 1080p SUB




Aportes de DPeliculasHDmega la pass es:dpeliculashdmega.org Aportes de CinemaniaHD la pass es:cinemaniahdd.com Aportes recientes:cinemaniahdd.net
Guardado en : Comedia , Crimen , Drama

Películas relacionadas

descargar Intermission (2003) WEB-DL 1080p SUB WEBDL 1080p gratis, Intermission (2003) WEB-DL 1080p SUB WEBDL mega 1 link, Intermission (2003) WEB-DL 1080p SUB WEBDL pelicula completa, descargar Intermission (2003) WEB-DL 1080p SUB WEBDL gratis en mega.

Intermission (2003) WEB-DL 1080p SUB pelicula full hd, Intermission (2003) WEB-DL 1080p SUB mega latino, Intermission (2003) WEB-DL 1080p SUB 4k latino, Intermission (2003) WEB-DL 1080p SUB pelicula completa, Intermission (2003) WEB-DL 1080p SUB descargar gratis, descargar Intermission (2003) WEB-DL 1080p SUB pelicula latino, Intermission (2003) WEB-DL 1080p SUB 1 link mega, Intermission (2003) WEB-DL 1080p SUB 1 link google drive, Intermission (2003) WEB-DL 1080p SUB hd 1080p latino.
Comentarios 0