×

¿Problemas para descargar con Mozilla, EDGE? Deshabilita la opción "Abrir vinculos en una pestaña nueva" tal como lo muestra ésta imagen.

Intercambiados (2020) WebDL 1080p Latino

417 vistas

Información de Intercambiados (2020) WebDL 1080p Latino

Datos de la película

  • Calidad: WEBDL
  • Audio: Se especifica abajo de la Sinopsis
  • Subtitulos: Español Latino SRT- FORZADOS SRT
  • Resolución: 1920x1038p
  • Formato: MKV
  • Codec: H.264
  • Encoder: CinemaniaHD
  • Mediainfo: Clic para Mostrar Datos Ver
  • Intercambiados (2020) WebDL 1080p Latino.mkv
    Format                      : Matroska
    Format version              : Version 4
    File size                   : 3.56 GiB
    Duration                    : 1 h 27 min
    Overall bit rate            : 5 806 kb/s
    Movie name                  : Takeover (2020) CinemaniaHDD.Net
    Encoded date                : UTC 2021-05-27 03:25:36
    Writing application         : mkvmerge v56.1.0 ('My Friend') 64-bit
    Writing library             : libebml v1.4.2 + libmatroska v1.6.4
    Attachments                 : CINEMANIAHD.png

    Video
    ID                          : 1
    Format                      : AVC
    Format/Info                 : Advanced Video Codec
    Format profile              : High@L4
    Format settings             : CABAC / 4 Ref Frames
    Format settings, CABAC      : Yes
    Format settings, Reference  : 4 frames
    Codec ID                    : V_MPEG4/ISO/AVC
    Duration                    : 1 h 27 min
    Bit rate                    : 5 164 kb/s
    Width                       : 1 920 pixels
    Height                      : 1 038 pixels
    Display aspect ratio        : 1.85:1
    Frame rate mode             : Constant
    Frame rate                  : 24.000 FPS
    Color space                 : YUV
    Chroma subsampling          : 4:2:0
    Bit depth                   : 8 bits
    Scan type                   : Progressive
    Bits/(Pixel*Frame)          : 0.108
    Stream size                 : 3.16 GiB (89%)
    Title                       : WEB HD1080p [CinemaniaHDD]
    Default                     : Yes
    Forced                      : Yes
    Color range                 : Limited
    Color primaries             : BT.709
    Transfer characteristics    : BT.709
    Matrix coefficients         : BT.709

    Audio #1
    ID                          : 2
    Format                      : AC-3
    Format/Info                 : Audio Coding 3
    Commercial name             : Dolby Digital
    Codec ID                    : A_AC3
    Duration                    : 1 h 27 min
    Bit rate mode               : Constant
    Bit rate                    : 256 kb/s
    Channel(s)                  : 2 channels
    Channel layout              : L R
    Sampling rate               : 48.0 kHz
    Frame rate                  : 31.250 FPS (1536 SPF)
    Compression mode            : Lossy
    Delay relative to video     : -42 ms
    Stream size                 : 161 MiB (4%)
    Title                       : Español Latino [CinemaniaHDD]
    Language                    : Spanish
    Service kind                : Complete Main
    Default                     : Yes
    Forced                      : Yes

    Audio #2
    ID                          : 3
    Format                      : AC-3
    Format/Info                 : Audio Coding 3
    Commercial name             : Dolby Digital
    Codec ID                    : A_AC3
    Duration                    : 1 h 27 min
    Bit rate mode               : Constant
    Bit rate                    : 384 kb/s
    Channel(s)                  : 6 channels
    Channel layout              : L R C LFE Ls Rs
    Sampling rate               : 48.0 kHz
    Frame rate                  : 31.250 FPS (1536 SPF)
    Compression mode            : Lossy
    Delay relative to video     : -42 ms
    Stream size                 : 241 MiB (7%)
    Title                       : Aleman [CinemaniaHDD]
    Language                    : German
    Service kind                : Complete Main
    Default                     : No
    Forced                      : No

    Text #1
    ID                          : 4
    Format                      : UTF-8
    Codec ID                    : S_TEXT/UTF8
    Codec ID/Info               : UTF-8 Plain Text
    Duration                    : 1 h 22 min
    Bit rate                    : 1 b/s
    Count of elements           : 23
    Stream size                 : 633 Bytes (0%)
    Title                       : Forzados-SRT [CinemaniaHDD]
    Language                    : Spanish
    Default                     : Yes
    Forced                      : Yes

    Text #2
    ID                          : 5
    Format                      : UTF-8
    Codec ID                    : S_TEXT/UTF8
    Codec ID/Info               : UTF-8 Plain Text
    Duration                    : 1 h 23 min
    Bit rate                    : 55 b/s
    Count of elements           : 1219
    Stream size                 : 34.1 KiB (0%)
    Title                       : Español-SRT [CinemaniaHDD]
    Language                    : Spanish
    Default                     : No
    Forced                      : No

    Text #3
    ID                          : 6
    Format                      : UTF-8
    Codec ID                    : S_TEXT/UTF8
    Codec ID/Info               : UTF-8 Plain Text
    Duration                    : 1 h 26 min
    Bit rate                    : 65 b/s
    Count of elements           : 1254
    Stream size                 : 41.8 KiB (0%)
    Title                       : Aleman-SRT [CinemaniaHDD]
    Language                    : German
    Default                     : No
    Forced                      : No

    Menu
    00:00:00.000                : 1
    00:21:46.041                : 2
    00:39:19.666                : 3
    00:58:26.541                : 4
    01:15:05.291                : 5
    01:24:19.623                : 6

  • Peso: 3.56 GiB

Sinopsis

Descargar Intercambiados (2020) WebDL 1080p Latino. Dos adolescentes, que se ven exactamente iguales, pero que nunca se conocieron antes, cambian de lugar durante las vacaciones en un parque temático.

Español Latino AC3 2.0 Itunes – Aleman AC3 5.1 Itunes

Ficha técnica

  • Titulo original: Takeover
  • Fecha de lanzamiento: 02-07-2020
  • Director: Florian Ross
  • Género: Comedia

Video trailer de la película

Enlaces de descarga

Rip de Bluray

Descargar Intercambiados (2020) WebDL 1080p Latino




Aportes de DPeliculasHDmega la pass es:dpeliculashdmega.org Aportes de CinemaniaHD la pass es:cinemaniahdd.com Aportes recientes:cinemaniahdd.net
Guardado en : Comedia

Películas relacionadas

  • Antes de conocernos (2023) HD 1080p Latino

    Antes de conocernos (2023) HD 1080p Latino

    2023
    Antes de conocernos (2023) HD 1080p Latino

    1h 38m 2023

    Descargar Antes de conocernos (2023) HD 1080p Latino. Jane y Will, dos adultos jóvenes, dedican tiempo...

    Director: Peter Hutchings

    Género: Comedia

    Actores: Ward Horton

  • Antes de conocernos (2023) REMUX 1080p Latino

    Antes de conocernos (2023) REMUX 1080p Latino

    2023
    Antes de conocernos (2023) REMUX 1080p Latino

    1h 38m 2023

    Descargar Antes de conocernos (2023) REMUX 1080p Latino. Jane y Will, dos adultos jóvenes, dedican tiempo...

    Director: Peter Hutchings

    Género: Comedia

    Actores: Ward Horton

  • La Madre de la Novia (2024) NF WEB-DL 1080p Latino

    La Madre de la Novia (2024) NF WEB-DL 1080p Latino

    2024
    La Madre de la Novia (2024) NF WEB-DL 1080p Latino

    1h 30m 2024

    Descargar La Madre de la Novia (2024) NF WEB-DL 1080p Latino. Emma, la hija de Lana, regresa de Londres...

    Director: Mark Waters

    Género: Comedia

    Actores: Wilson Cruz

descargar Intercambiados (2020) WebDL 1080p Latino WEBDL 1080p gratis, Intercambiados (2020) WebDL 1080p Latino WEBDL mega 1 link, Intercambiados (2020) WebDL 1080p Latino WEBDL pelicula completa, descargar Intercambiados (2020) WebDL 1080p Latino WEBDL gratis en mega.

Intercambiados (2020) WebDL 1080p Latino pelicula full hd, Intercambiados (2020) WebDL 1080p Latino mega latino, Intercambiados (2020) WebDL 1080p Latino 4k latino, Intercambiados (2020) WebDL 1080p Latino pelicula completa, Intercambiados (2020) WebDL 1080p Latino descargar gratis, descargar Intercambiados (2020) WebDL 1080p Latino pelicula latino, Intercambiados (2020) WebDL 1080p Latino 1 link mega, Intercambiados (2020) WebDL 1080p Latino 1 link google drive, Intercambiados (2020) WebDL 1080p Latino hd 1080p latino.
Comentarios 0