×

¿Problemas para descargar con Mozilla, EDGE? Deshabilita la opción "Abrir vinculos en una pestaña nueva" tal como lo muestra ésta imagen.

Insidious La Ultima Llave (2018) Full HD 1080p Latino-CMHDD

112 vistas

Información de Insidious La Ultima Llave (2018) Full HD 1080p Latino-CMHDD

Datos de la película

  • Calidad: Full 1080p
  • Audio: Español Latino AC3 5.1 BLURAY - Ingles DTS 5.1 BLURAY
  • Subtitulos: Español Latino PGS - Ingles PGS
  • Resolución: 1920x1080p
  • Formato: MKV
  • Codec: H.264
  • Encoder: CinefiloCool
  • Mediainfo: Clic para Mostrar Datos Ver
  • Insidious.The.Last.Key.2018.FullHD.1080p.Latino-CC@CMHDD.mkv
    Format                      : Matroska
    Format version              : Version 4
    File size                   : 2.98 GiB
    Duration                    : 1 h 43 min
    Overall bit rate            : 4 129 kb/s
    Movie name                  : Insidious The Last Key (2018) CinemaniaHDD.Net
    Encoded date                : UTC 2023-10-31 04:02:34
    Writing application         : mkvmerge v56.1.0 ('My Friend') 64-bit
    Writing library             : libebml v1.4.2 + libmatroska v1.6.4
    Attachments                 : CINEMANIAHD.png

    Video
    ID                          : 1
    Format                      : AVC
    Format/Info                 : Advanced Video Codec
    Format profile              : High@L4.1
    Format settings             : CABAC / 4 Ref Frames
    Format settings, CABAC      : Yes
    Format settings, Reference  : 4 frames
    Codec ID                    : V_MPEG4/ISO/AVC
    Duration                    : 1 h 43 min
    Bit rate                    : 1 958 kb/s
    Width                       : 1 920 pixels
    Height                      : 1 080 pixels
    Display aspect ratio        : 16:9
    Frame rate mode             : Constant
    Frame rate                  : 23.976 (24000/1001) FPS
    Color space                 : YUV
    Chroma subsampling          : 4:2:0
    Bit depth                   : 8 bits
    Scan type                   : Progressive
    Bits/(Pixel*Frame)          : 0.039
    Stream size                 : 1.41 GiB (47%)
    Title                       : Full HD1080p [CinemaniaHDD]
    Writing library             : x264 core 163 r3059 b684ebe0
    Encoding settings           : cabac=1 / ref=4 / deblock=1:0:0 / analyse=0x3:0x133 / me=tesa / subme=11 / psy=1 / psy_rd=1.00:0.00 / mixed_ref=1 / me_range=24 / chroma_me=1 / trellis=2 / 8x8dct=1 / cqm=0 / deadzone=21,11 / fast_pskip=0 / chroma_qp_offset=-2 / threads=24 / lookahead_threads=6 / sliced_threads=0 / nr=0 / decimate=1 / interlaced=0 / bluray_compat=0 / constrained_intra=0 / bframes=16 / b_pyramid=2 / b_adapt=2 / b_bias=0 / direct=3 / weightb=1 / open_gop=0 / weightp=2 / keyint=240 / keyint_min=24 / scenecut=40 / intra_refresh=0 / rc_lookahead=60 / rc=crf / mbtree=1 / crf=20.0 / qcomp=0.60 / qpmin=0 / qpmax=69 / qpstep=4 / vbv_maxrate=62500 / vbv_bufsize=78125 / crf_max=0.0 / nal_hrd=none / filler=0 / ip_ratio=1.40 / aq=1:1.00
    Default                     : Yes
    Forced                      : Yes
    Color range                 : Limited
    Color primaries             : BT.709
    Transfer characteristics    : BT.709
    Matrix coefficients         : BT.709

    Audio #1
    ID                          : 2
    Format                      : AC-3
    Format/Info                 : Audio Coding 3
    Commercial name             : Dolby Digital
    Codec ID                    : A_AC3
    Duration                    : 1 h 43 min
    Bit rate mode               : Constant
    Bit rate                    : 640 kb/s
    Channel(s)                  : 6 channels
    Channel layout              : L R C LFE Ls Rs
    Sampling rate               : 48.0 kHz
    Frame rate                  : 31.250 FPS (1536 SPF)
    Compression mode            : Lossy
    Stream size                 : 473 MiB (15%)
    Title                       : Español Latino [CinemaniaHDD]
    Language                    : Spanish
    Service kind                : Complete Main
    Default                     : Yes
    Forced                      : Yes

    Audio #2
    ID                          : 3
    Format                      : DTS
    Format/Info                 : Digital Theater Systems
    Codec ID                    : A_DTS
    Duration                    : 1 h 43 min
    Bit rate mode               : Constant
    Bit rate                    : 1 509 kb/s
    Channel(s)                  : 6 channels
    Channel layout              : C L R Ls Rs LFE
    Sampling rate               : 48.0 kHz
    Frame rate                  : 93.750 FPS (512 SPF)
    Bit depth                   : 24 bits
    Compression mode            : Lossy
    Stream size                 : 1.09 GiB (37%)
    Title                       : Ingles [CinemaniaHDD]
    Language                    : English
    Default                     : No
    Forced                      : No

    Text #1
    ID                          : 4
    Format                      : PGS
    Muxing mode                 : zlib
    Codec ID                    : S_HDMV/PGS
    Codec ID/Info               : Picture based subtitle format used on BDs/HD-DVDs
    Duration                    : 1 h 41 min
    Bit rate                    : 320 b/s
    Count of elements           : 28
    Stream size                 : 239 KiB (0%)
    Title                       : Forzados-PGS [CinemaniaHDD]
    Language                    : Spanish
    Default                     : No
    Forced                      : No

    Text #2
    ID                          : 5
    Format                      : PGS
    Muxing mode                 : zlib
    Codec ID                    : S_HDMV/PGS
    Codec ID/Info               : Picture based subtitle format used on BDs/HD-DVDs
    Duration                    : 1 h 42 min
    Bit rate                    : 16.9 kb/s
    Count of elements           : 1656
    Stream size                 : 12.4 MiB (0%)
    Title                       : Español-PGS [CinemaniaHDD]
    Language                    : Spanish
    Default                     : No
    Forced                      : No

    Text #3
    ID                          : 6
    Format                      : PGS
    Muxing mode                 : zlib
    Codec ID                    : S_HDMV/PGS
    Codec ID/Info               : Picture based subtitle format used on BDs/HD-DVDs
    Duration                    : 1 h 34 min
    Bit rate                    : 20.5 kb/s
    Count of elements           : 1671
    Stream size                 : 13.9 MiB (0%)
    Title                       : Ingles [CinemaniaHDD]
    Language                    : English
    Default                     : No
    Forced                      : No

    Text #4
    ID                          : 7
    Format                      : UTF-8
    Codec ID                    : S_TEXT/UTF8
    Codec ID/Info               : UTF-8 Plain Text
    Duration                    : 1 h 34 min
    Bit rate                    : 0 b/s
    Count of elements           : 13
    Stream size                 : 271 Bytes (0%)
    Title                       : Forzados-SRT [CinemaniaHDD]
    Language                    : Spanish
    Default                     : Yes
    Forced                      : Yes

    Text #5
    ID                          : 8
    Format                      : UTF-8
    Codec ID                    : S_TEXT/UTF8
    Codec ID/Info               : UTF-8 Plain Text
    Duration                    : 1 h 42 min
    Bit rate                    : 28 b/s
    Count of elements           : 827
    Stream size                 : 21.0 KiB (0%)
    Title                       : Español-SRT [CinemaniaHDD]
    Language                    : Spanish
    Default                     : No
    Forced                      : No

    Menu
    00:00:00.000                : :00:00:00.000
    00:16:21.397                : :00:16:21.397
    00:19:55.111                : :00:19:55.111
    00:22:29.056                : :00:22:29.056
    00:29:03.617                : :00:29:03.617
    00:36:24.307                : :00:36:24.307
    00:44:05.685                : :00:44:05.685
    00:54:14.334                : :00:54:14.168
    00:57:21.855                : :00:57:21.855
    01:02:08.183                : :01:02:08.183
    01:05:17.664                : :01:05:17.664
    01:10:17.964                : :01:10:17.964
    01:16:58.405                : :01:16:58.239
    01:22:11.593                : :01:22:11.593
    01:29:49.467                : :01:29:49.467
    01:34:34.377                : :01:34:34.252

  • Peso: 2.98 GiB

Sinopsis

Descargar Insidious La Ultima Llave (2018) Full HD 1080p Latino-CMHDD. Insidious 4 es la cuarta entrega de una de las sagas de terror más famosas de la actualidad. En las dos primeras películas pudimos seguir la historia de Josh y Renai Lambert, quienes empiezan a experimentar extrañas visiones tras el coma sufrido por su hijo. La tercera fue una precuela que narró los orígenes sobre la presencia sobrenatural que asoló a la familia Lambert, donde el protagonismo recae en una famosa médium llamada Elise Rainier (Lin Shaye), que acepta ayudar a un joven acosado por una presencia. La nueva entrega de ‘Insidious’ cuenta de nuevo con un guión de Leigh Whannell, guionista de todas las películas y director de ‘Insidious Capítulo 3’, y con Adam Robitel como director. La parapsicóloga Elise Rainier afronta su caso sobrenatural más terrorífico: en su propia casa.

Ficha técnica

Video trailer de la película

Enlaces de descarga

Rip de Bluray

Descargar Insidious La Ultima Llave (2018) Full HD 1080p Latino-CMHDD




Aportes de DPeliculasHDmega la pass es:dpeliculashdmega.org Aportes de CinemaniaHD la pass es:cinemaniahdd.com Aportes recientes:cinemaniahdd.net

Películas relacionadas

descargar Insidious La Ultima Llave (2018) Full HD 1080p Latino-CMHDD Full 1080p 1080p gratis, Insidious La Ultima Llave (2018) Full HD 1080p Latino-CMHDD Full 1080p mega 1 link, Insidious La Ultima Llave (2018) Full HD 1080p Latino-CMHDD Full 1080p pelicula completa, descargar Insidious La Ultima Llave (2018) Full HD 1080p Latino-CMHDD Full 1080p gratis en mega.

Insidious La Ultima Llave (2018) Full HD 1080p Latino-CMHDD pelicula full hd, Insidious La Ultima Llave (2018) Full HD 1080p Latino-CMHDD mega latino, Insidious La Ultima Llave (2018) Full HD 1080p Latino-CMHDD 4k latino, Insidious La Ultima Llave (2018) Full HD 1080p Latino-CMHDD pelicula completa, Insidious La Ultima Llave (2018) Full HD 1080p Latino-CMHDD descargar gratis, descargar Insidious La Ultima Llave (2018) Full HD 1080p Latino-CMHDD pelicula latino, Insidious La Ultima Llave (2018) Full HD 1080p Latino-CMHDD 1 link mega, Insidious La Ultima Llave (2018) Full HD 1080p Latino-CMHDD 1 link google drive, Insidious La Ultima Llave (2018) Full HD 1080p Latino-CMHDD hd 1080p latino.
Comentarios 0