×

¿Problemas para descargar con Mozilla, EDGE? Deshabilita la opción "Abrir vinculos en una pestaña nueva" tal como lo muestra ésta imagen.

Insidious Capitulo 3 (2015) REMUX 1080p Latino-CMHDD

134 vistas

Información de Insidious Capitulo 3 (2015) REMUX 1080p Latino-CMHDD

Datos de la película

  • Calidad: Full 1080p
  • Audio: Español Latino AC3 5.1 BLURAY - Ingles DTS 5.1 BLURAY
  • Subtitulos: Español Latino PGS - Ingles PGS
  • Resolución: 1920x1080p
  • Formato: MKV
  • Codec: H.264
  • Encoder: CinefiloCool
  • Mediainfo: Clic para Mostrar Datos Ver
  • Insidious Capitulo 3 (2015) REMUX 1080p Latino-CMHDD.mkv
    Format                      : Matroska
    Format version              : Version 4
    File size                   : 18.9 GiB
    Duration                    : 1 h 37 min
    Overall bit rate mode       : Variable
    Overall bit rate            : 27.7 Mb/s
    Movie name                  : Insidious Chapter 3 (2015) CinemaniaHDD.Net
    Encoded date                : UTC 2023-09-29 04:07:18
    Writing application         : mkvmerge v56.1.0 ('My Friend') 64-bit
    Writing library             : libebml v1.4.2 + libmatroska v1.6.4
    Attachments                 : CINEMANIAHD.png

    Video
    ID                          : 1
    Format                      : AVC
    Format/Info                 : Advanced Video Codec
    Format profile              : High@L4.1
    Format settings             : CABAC / 2 Ref Frames
    Format settings, CABAC      : Yes
    Format settings, Reference  : 2 frames
    Codec ID                    : V_MPEG4/ISO/AVC
    Duration                    : 1 h 37 min
    Bit rate mode               : Variable
    Bit rate                    : 24.9 Mb/s
    Width                       : 1 920 pixels
    Height                      : 1 080 pixels
    Display aspect ratio        : 16:9
    Frame rate mode             : Constant
    Frame rate                  : 23.976 (24000/1001) FPS
    Color space                 : YUV
    Chroma subsampling          : 4:2:0
    Bit depth                   : 8 bits
    Scan type                   : Progressive
    Bits/(Pixel*Frame)          : 0.501
    Stream size                 : 17.0 GiB (90%)
    Title                       : REMUX HD1080p [CinemaniaHDD]
    Default                     : Yes
    Forced                      : Yes

    Audio #1
    ID                          : 2
    Format                      : AC-3
    Format/Info                 : Audio Coding 3
    Commercial name             : Dolby Digital
    Codec ID                    : A_AC3
    Duration                    : 1 h 37 min
    Bit rate mode               : Constant
    Bit rate                    : 640 kb/s
    Channel(s)                  : 6 channels
    Channel layout              : L R C LFE Ls Rs
    Sampling rate               : 48.0 kHz
    Frame rate                  : 31.250 FPS (1536 SPF)
    Compression mode            : Lossy
    Stream size                 : 446 MiB (2%)
    Title                       : Español Latino [CinemaniaHDD]
    Language                    : Spanish
    Service kind                : Complete Main
    Default                     : Yes
    Forced                      : Yes

    Audio #2
    ID                          : 3
    Format                      : DTS XLL
    Format/Info                 : Digital Theater Systems
    Commercial name             : DTS-HD Master Audio
    Codec ID                    : A_DTS
    Duration                    : 1 h 37 min
    Bit rate mode               : Variable
    Bit rate                    : 2 127 kb/s
    Channel(s)                  : 6 channels
    Channel layout              : C L R Ls Rs LFE
    Sampling rate               : 48.0 kHz
    Frame rate                  : 93.750 FPS (512 SPF)
    Bit depth                   : 16 bits
    Compression mode            : Lossless
    Stream size                 : 1.45 GiB (8%)
    Title                       : Ingles [CinemaniaHDD]
    Language                    : English
    Default                     : No
    Forced                      : No

    Text #1
    ID                          : 4
    Format                      : PGS
    Muxing mode                 : zlib
    Codec ID                    : S_HDMV/PGS
    Codec ID/Info               : Picture based subtitle format used on BDs/HD-DVDs
    Duration                    : 1 h 31 min
    Bit rate                    : 127 b/s
    Count of elements           : 6
    Stream size                 : 85.5 KiB (0%)
    Title                       : Forzados-PGS [CinemaniaHDD]
    Language                    : Spanish
    Default                     : No
    Forced                      : No

    Text #2
    ID                          : 5
    Format                      : PGS
    Muxing mode                 : zlib
    Codec ID                    : S_HDMV/PGS
    Codec ID/Info               : Picture based subtitle format used on BDs/HD-DVDs
    Duration                    : 1 h 35 min
    Bit rate                    : 21.8 kb/s
    Count of elements           : 1798
    Stream size                 : 14.9 MiB (0%)
    Title                       : Español-PGS [CinemaniaHDD]
    Language                    : Spanish
    Default                     : No
    Forced                      : No

    Text #3
    ID                          : 6
    Format                      : PGS
    Muxing mode                 : zlib
    Codec ID                    : S_HDMV/PGS
    Codec ID/Info               : Picture based subtitle format used on BDs/HD-DVDs
    Duration                    : 1 h 27 min
    Bit rate                    : 25.6 kb/s
    Count of elements           : 1536
    Stream size                 : 16.0 MiB (0%)
    Title                       : Ingles [CinemaniaHDD]
    Language                    : English
    Default                     : No
    Forced                      : No

    Text #4
    ID                          : 7
    Format                      : UTF-8
    Codec ID                    : S_TEXT/UTF8
    Codec ID/Info               : UTF-8 Plain Text
    Duration                    : 1 h 3 min
    Bit rate                    : 0 b/s
    Count of elements           : 11
    Stream size                 : 228 Bytes (0%)
    Title                       : Forzados-SRT [CinemaniaHDD]
    Language                    : Spanish
    Default                     : Yes
    Forced                      : Yes

    Text #5
    ID                          : 8
    Format                      : UTF-8
    Codec ID                    : S_TEXT/UTF8
    Codec ID/Info               : UTF-8 Plain Text
    Duration                    : 1 h 28 min
    Bit rate                    : 39 b/s
    Count of elements           : 787
    Stream size                 : 25.6 KiB (0%)
    Title                       : Español-SRT [CinemaniaHDD]
    Language                    : Spanish
    Default                     : No
    Forced                      : No

    Menu
    00:00:00.000                : Chapter 01
    00:11:02.620                : Chapter 02
    00:15:10.243                : Chapter 03
    00:20:14.380                : Chapter 04
    00:26:15.532                : Chapter 05
    00:33:00.979                : Chapter 06
    00:38:09.329                : Chapter 07
    00:41:51.134                : Chapter 08
    00:45:27.266                : Chapter 09
    00:49:39.894                : Chapter 10
    00:54:36.732                : Chapter 11
    01:01:02.450                : Chapter 12
    01:05:06.444                : Chapter 13
    01:11:54.769                : Chapter 14
    01:16:33.589                : Chapter 15
    01:27:24.239                : Chapter 16

  • Peso: 18.9 GiB

Sinopsis

Descargar Insidious Capitulo 3 (2015) REMUX 1080p Latino-CMHDD. Elise Rainier (Lin Shaye) acepta a regañadientes utilizar su capacidad de contactar con los muertos a fin de ayudar a una adolescente (Stefanie Scott) que se ha convertido en el blanco de una peligrosa entidad sobrenatural.

Ficha técnica

Video trailer de la película

Enlaces de descarga

Rip de Bluray

Descargar Insidious Capitulo 3 (2015) REMUX 1080p Latino-CMHDD


Aportes de DPeliculasHDmega la pass es:dpeliculashdmega.org Aportes de CinemaniaHD la pass es:cinemaniahdd.com Aportes recientes:cinemaniahdd.net
Guardado en : Misterio , Remux , Suspenso , Terror
Etiquetado en :

Películas relacionadas

  • La Duquesa (2008) REMUX 1080p Latino-CMHDD

    La Duquesa (2008) REMUX 1080p Latino-CMHDD

    2008
    La Duquesa (2008) REMUX 1080p Latino-CMHDD

    1h 51m 2008

    Descargar La Duquesa (2008) REMUX 1080p Latino-CMHDD. Hermosa, glamurosa y adorada por el pueblo, Georgiana...

    Director: Saul Dibb

    Género: Drama

    Actores: Thomas Arnold

  • Godzilla vs. Kong (2021) REMUX 4K HDR Latino – CMHDD

    Godzilla vs. Kong (2021) REMUX 4K HDR Latino – CMHDD

    2021
    Godzilla vs. Kong (2021) REMUX 4K HDR Latino – CMHDD

    1h 54m 2021

    Godzilla y Kong, dos de las fuerzas más poderosas de un planeta habitado por todo tipo de aterradoras...

    Director: Thomas Robinson Harper

    Género: Acción

    Actores: Victoria Liu

  • Ferrari (2023) REMUX 1080p Latino

    Ferrari (2023) REMUX 1080p Latino

    2023
    Ferrari (2023) REMUX 1080p Latino

    2h 11m 2023

    Descargar Ferrari (2023) REMUX 1080p Latino. Verano de 1957. El ex piloto de carreras, Ferrari, está...

    Director: Peter Thorell

    Género: Drama

    Actores: Wyatt Carnel

descargar Insidious Capitulo 3 (2015) REMUX 1080p Latino-CMHDD Full 1080p 1080p gratis, Insidious Capitulo 3 (2015) REMUX 1080p Latino-CMHDD Full 1080p mega 1 link, Insidious Capitulo 3 (2015) REMUX 1080p Latino-CMHDD Full 1080p pelicula completa, descargar Insidious Capitulo 3 (2015) REMUX 1080p Latino-CMHDD Full 1080p gratis en mega.

Insidious Capitulo 3 (2015) REMUX 1080p Latino-CMHDD pelicula full hd, Insidious Capitulo 3 (2015) REMUX 1080p Latino-CMHDD mega latino, Insidious Capitulo 3 (2015) REMUX 1080p Latino-CMHDD 4k latino, Insidious Capitulo 3 (2015) REMUX 1080p Latino-CMHDD pelicula completa, Insidious Capitulo 3 (2015) REMUX 1080p Latino-CMHDD descargar gratis, descargar Insidious Capitulo 3 (2015) REMUX 1080p Latino-CMHDD pelicula latino, Insidious Capitulo 3 (2015) REMUX 1080p Latino-CMHDD 1 link mega, Insidious Capitulo 3 (2015) REMUX 1080p Latino-CMHDD 1 link google drive, Insidious Capitulo 3 (2015) REMUX 1080p Latino-CMHDD hd 1080p latino.
Comentarios 0