×

¿Problemas para descargar con Mozilla, EDGE? Deshabilita la opción "Abrir vinculos en una pestaña nueva" tal como lo muestra ésta imagen.

Insidious Capitulo 2 (2013) REMUX 1080p Latino-CMHDD

151 vistas

Información de Insidious Capitulo 2 (2013) REMUX 1080p Latino-CMHDD

Datos de la película

  • Calidad: Full 1080p
  • Audio: Español Latino AC3 5.1 BLURAY - Ingles DTS 5.1 BLURAY
  • Subtitulos: Español Latino PGS - Ingles PGS
  • Resolución: 1920x1080p
  • Formato: MKV
  • Codec: H.264
  • Encoder: CinefiloCool
  • Mediainfo: Clic para Mostrar Datos Ver
  • Insidious Capitulo 2 (2013) REMUX 1080p Latino-CMHDD.mkv
    Format                      : Matroska
    Format version              : Version 4
    File size                   : 20.7 GiB
    Duration                    : 1 h 45 min
    Overall bit rate mode       : Variable
    Overall bit rate            : 28.0 Mb/s
    Movie name                  : Insidious Chapter 2 (2013) CinemaniaHDD.Net
    Encoded date                : UTC 2023-09-27 03:11:32
    Writing application         : mkvmerge v56.1.0 ('My Friend') 64-bit
    Writing library             : libebml v1.4.2 + libmatroska v1.6.4
    Attachments                 : CINEMANIAHD.png

    Video
    ID                          : 1
    Format                      : AVC
    Format/Info                 : Advanced Video Codec
    Format profile              : High@L4.1
    Format settings             : CABAC / 2 Ref Frames
    Format settings, CABAC      : Yes
    Format settings, Reference  : 2 frames
    Codec ID                    : V_MPEG4/ISO/AVC
    Duration                    : 1 h 45 min
    Bit rate mode               : Variable
    Bit rate                    : 25.2 Mb/s
    Width                       : 1 920 pixels
    Height                      : 1 080 pixels
    Display aspect ratio        : 16:9
    Frame rate mode             : Constant
    Frame rate                  : 23.976 (24000/1001) FPS
    Color space                 : YUV
    Chroma subsampling          : 4:2:0
    Bit depth                   : 8 bits
    Scan type                   : Progressive
    Bits/(Pixel*Frame)          : 0.507
    Stream size                 : 18.7 GiB (90%)
    Title                       : REMUX HD1080p [CinemaniaHDD]
    Language                    : English
    Default                     : Yes
    Forced                      : Yes

    Audio #1
    ID                          : 2
    Format                      : AC-3
    Format/Info                 : Audio Coding 3
    Commercial name             : Dolby Digital
    Codec ID                    : A_AC3
    Duration                    : 1 h 45 min
    Bit rate mode               : Constant
    Bit rate                    : 640 kb/s
    Channel(s)                  : 6 channels
    Channel layout              : L R C LFE Ls Rs
    Sampling rate               : 48.0 kHz
    Frame rate                  : 31.250 FPS (1536 SPF)
    Compression mode            : Lossy
    Stream size                 : 484 MiB (2%)
    Title                       : Español Latino [CinemaniaHDD]
    Language                    : Spanish
    Service kind                : Complete Main
    Default                     : Yes
    Forced                      : Yes

    Audio #2
    ID                          : 3
    Format                      : DTS XLL
    Format/Info                 : Digital Theater Systems
    Commercial name             : DTS-HD Master Audio
    Codec ID                    : A_DTS
    Duration                    : 1 h 45 min
    Bit rate mode               : Variable
    Bit rate                    : 2 140 kb/s
    Channel(s)                  : 6 channels
    Channel layout              : C L R Ls Rs LFE
    Sampling rate               : 48.0 kHz
    Frame rate                  : 93.750 FPS (512 SPF)
    Bit depth                   : 16 bits
    Compression mode            : Lossless
    Stream size                 : 1.58 GiB (8%)
    Title                       : Ingles [CinemaniaHDD]
    Language                    : English
    Default                     : No
    Forced                      : No

    Text #1
    ID                          : 4
    Format                      : PGS
    Muxing mode                 : zlib
    Codec ID                    : S_HDMV/PGS
    Codec ID/Info               : Picture based subtitle format used on BDs/HD-DVDs
    Duration                    : 1 h 40 min
    Bit rate                    : 20.8 kb/s
    Count of elements           : 1770
    Stream size                 : 14.9 MiB (0%)
    Title                       : Español-PGS [CinemaniaHDD]
    Language                    : Spanish
    Default                     : No
    Forced                      : No

    Text #2
    ID                          : 5
    Format                      : PGS
    Muxing mode                 : zlib
    Codec ID                    : S_HDMV/PGS
    Codec ID/Info               : Picture based subtitle format used on BDs/HD-DVDs
    Duration                    : 1 h 39 min
    Bit rate                    : 19.9 kb/s
    Count of elements           : 1794
    Stream size                 : 14.2 MiB (0%)
    Title                       : Ingles [CinemaniaHDD]
    Language                    : English
    Default                     : No
    Forced                      : No

    Text #3
    ID                          : 6
    Format                      : UTF-8
    Codec ID                    : S_TEXT/UTF8
    Codec ID/Info               : UTF-8 Plain Text
    Duration                    : 1 h 11 min
    Bit rate                    : 0 b/s
    Count of elements           : 6
    Stream size                 : 86.0 Bytes (0%)
    Title                       : Forzados-SRT [CinemaniaHDD]
    Language                    : Spanish
    Default                     : Yes
    Forced                      : Yes

    Text #4
    ID                          : 7
    Format                      : UTF-8
    Codec ID                    : S_TEXT/UTF8
    Codec ID/Info               : UTF-8 Plain Text
    Duration                    : 1 h 39 min
    Bit rate                    : 34 b/s
    Count of elements           : 925
    Stream size                 : 24.9 KiB (0%)
    Title                       : Español-SRT [CinemaniaHDD]
    Language                    : Spanish
    Default                     : No
    Forced                      : No

    Menu
    00:00:00.000                : 00:00:00.000
    00:12:45.890                : 00:12:45.890
    00:22:22.967                : 00:22:22.967
    00:26:03.228                : 00:26:03.228
    00:30:09.224                : 00:30:09.224
    00:37:31.583                : 00:37:31.583
    00:42:46.314                : 00:42:46.314
    00:48:49.468                : 00:48:49.468
    00:56:11.702                : 00:56:11.702
    00:59:41.661                : 00:59:41.661
    01:05:57.579                : 01:05:57.579
    01:14:33.344                : 01:14:33.344
    01:21:37.351                : 01:21:37.351
    01:27:31.413                : 01:27:31.413
    01:33:33.858                : 01:33:33.858
    01:38:59.433                : 01:38:59.433

  • Peso: 20.7 GiB

Sinopsis

Descargar Insidious Capitulo 2 (2013) REMUX 1080p Latino-CMHDD. Josh y Renai Lambert se han mudado con sus hijos a la casa de Lorraine, la madre de Josh, esperando olvidar el pasado y comenzar una nueva vida. Pero pronto la familia empieza a percibir extrañas visiones y fenómenos amenazantes que los obligarán a desentrañar un oscuro secreto.

Ficha técnica

Video trailer de la película

Enlaces de descarga

Rip de Bluray

Descargar Insidious Capitulo 2 (2013) REMUX 1080p Latino-CMHDD


Aportes de DPeliculasHDmega la pass es:dpeliculashdmega.org Aportes de CinemaniaHD la pass es:cinemaniahdd.com Aportes recientes:cinemaniahdd.net
Guardado en : Remux , Suspenso , Terror
Etiquetado en :

Películas relacionadas

  • The Teachers Lounge (2023) AMZN WEB-DL 1080p Latino

    The Teachers Lounge (2023) AMZN WEB-DL 1080p Latino

    2023
    The Teachers Lounge (2023) AMZN WEB-DL 1080p Latino

    1h 38m 2023

    Carla Nowak (LEONIE BENESCH) es una joven profesora dedicada e idealista en su primer puesto en una secundaria....

    Director: Pia Ihling

    Género: Drama

    Actores: Zayana Mielke

  • iZombie (2016) Temporada 02 REMUX 1080p Latino

    iZombie (2016) Temporada 02 REMUX 1080p Latino

    2015
    iZombie (2016) Temporada 02 REMUX 1080p Latino

    0h 42m 2015

    Descargar iZombie (2016) Temporada 02 REMUX 1080p Latino. Gira en torno a una estudiante de medicina...

    Director: Rob Thomas

    Género: Crimen

    Actores: Rose McIver

  • iZombie (2015) Temporada 01 REMUX 1080p Latino

    iZombie (2015) Temporada 01 REMUX 1080p Latino

    2015
    iZombie (2015) Temporada 01 REMUX 1080p Latino

    0h 42m 2015

    Descargar iZombie (2015) Temporada 01 REMUX 1080p Latino. Gira en torno a una estudiante de medicina...

    Director: Rob Thomas

    Género: Crimen

    Actores: Rose McIver

  • Fear (2023) AMZN WEB-DL 1080p Latino

    Fear (2023) AMZN WEB-DL 1080p Latino

    2023
    Fear (2023) AMZN WEB-DL 1080p Latino

    1h 38m 2023

    Una escapada muy necesaria y un fin de semana de celebración se convierte en una pesadilla debido a...

    Director: Deon Taylor

    Género: Drama

    Actores: Whylip Lee

  • Good Burger 2 (2023) REMUX 1080p Latino

    Good Burger 2 (2023) REMUX 1080p Latino

    2023
    Good Burger 2 (2023) REMUX 1080p Latino

    1h 31m 2023

    Descargar Good Burger 2 (2023) REMUX 1080p Latino. Después de que su último invento falla, Ed le da...

    Director: Ross Novie

    Género: Comedia

    Actores: Zoe Saldana

descargar Insidious Capitulo 2 (2013) REMUX 1080p Latino-CMHDD Full 1080p 1080p gratis, Insidious Capitulo 2 (2013) REMUX 1080p Latino-CMHDD Full 1080p mega 1 link, Insidious Capitulo 2 (2013) REMUX 1080p Latino-CMHDD Full 1080p pelicula completa, descargar Insidious Capitulo 2 (2013) REMUX 1080p Latino-CMHDD Full 1080p gratis en mega.

Insidious Capitulo 2 (2013) REMUX 1080p Latino-CMHDD pelicula full hd, Insidious Capitulo 2 (2013) REMUX 1080p Latino-CMHDD mega latino, Insidious Capitulo 2 (2013) REMUX 1080p Latino-CMHDD 4k latino, Insidious Capitulo 2 (2013) REMUX 1080p Latino-CMHDD pelicula completa, Insidious Capitulo 2 (2013) REMUX 1080p Latino-CMHDD descargar gratis, descargar Insidious Capitulo 2 (2013) REMUX 1080p Latino-CMHDD pelicula latino, Insidious Capitulo 2 (2013) REMUX 1080p Latino-CMHDD 1 link mega, Insidious Capitulo 2 (2013) REMUX 1080p Latino-CMHDD 1 link google drive, Insidious Capitulo 2 (2013) REMUX 1080p Latino-CMHDD hd 1080p latino.
Comentarios 0