×

¿Problemas para descargar con Mozilla, EDGE? Deshabilita la opción "Abrir vinculos en una pestaña nueva" tal como lo muestra ésta imagen.

Insidious Capitulo 2 (2013) Full HD 1080p Latino-CMHDD

105 vistas

Información de Insidious Capitulo 2 (2013) Full HD 1080p Latino-CMHDD

Datos de la película

  • Calidad: Full 1080p
  • Audio: Español Latino AC3 5.1 BLURAY - Ingles DTS 5.1 BLURAY
  • Subtitulos: Español Latino PGS - Ingles PGS
  • Resolución: 1920x1080p
  • Formato: MKV
  • Codec: H.264
  • Encoder: CinefiloCool
  • Mediainfo: Clic para Mostrar Datos Ver
  • Insidious.Chapter.2.2013.FullHD.1080p.Latino-CC@CMHDD.mkv
    Format                      : Matroska
    Format version              : Version 4
    File size                   : 3.65 GiB
    Duration                    : 1 h 45 min
    Overall bit rate            : 4 942 kb/s
    Movie name                  : Insidious Chapter 2 (2013) CinemaniaHDD.Net
    Encoded date                : UTC 2023-10-31 03:57:51
    Writing application         : mkvmerge v56.1.0 ('My Friend') 64-bit
    Writing library             : libebml v1.4.2 + libmatroska v1.6.4 / Lavf58.76.100
    Attachments                 : CINEMANIAHD.png

    Video
    ID                          : 1
    Format                      : AVC
    Format/Info                 : Advanced Video Codec
    Format profile              : High@L4.1
    Format settings             : CABAC / 4 Ref Frames
    Format settings, CABAC      : Yes
    Format settings, Reference  : 4 frames
    Codec ID                    : V_MPEG4/ISO/AVC
    Duration                    : 1 h 45 min
    Bit rate                    : 2 781 kb/s
    Width                       : 1 920 pixels
    Height                      : 1 080 pixels
    Display aspect ratio        : 16:9
    Frame rate mode             : Constant
    Frame rate                  : 23.976 (24000/1001) FPS
    Color space                 : YUV
    Chroma subsampling          : 4:2:0
    Bit depth                   : 8 bits
    Scan type                   : Progressive
    Bits/(Pixel*Frame)          : 0.056
    Stream size                 : 2.06 GiB (56%)
    Title                       : Full HD1080p [CinemaniaHDD]
    Writing library             : x264 core 163 r3059 b684ebe0
    Encoding settings           : cabac=1 / ref=4 / deblock=1:0:0 / analyse=0x3:0x133 / me=tesa / subme=11 / psy=1 / psy_rd=1.00:0.00 / mixed_ref=1 / me_range=24 / chroma_me=1 / trellis=2 / 8x8dct=1 / cqm=0 / deadzone=21,11 / fast_pskip=0 / chroma_qp_offset=-2 / threads=24 / lookahead_threads=6 / sliced_threads=0 / nr=0 / decimate=1 / interlaced=0 / bluray_compat=0 / constrained_intra=0 / bframes=16 / b_pyramid=2 / b_adapt=2 / b_bias=0 / direct=3 / weightb=1 / open_gop=0 / weightp=2 / keyint=240 / keyint_min=24 / scenecut=40 / intra_refresh=0 / rc_lookahead=60 / rc=crf / mbtree=1 / crf=20.0 / qcomp=0.60 / qpmin=0 / qpmax=69 / qpstep=4 / vbv_maxrate=62500 / vbv_bufsize=78125 / crf_max=0.0 / nal_hrd=none / filler=0 / ip_ratio=1.40 / aq=1:1.00
    Default                     : Yes
    Forced                      : Yes
    Color range                 : Limited
    Color primaries             : BT.709
    Transfer characteristics    : BT.709
    Matrix coefficients         : BT.709

    Audio #1
    ID                          : 2
    Format                      : AC-3
    Format/Info                 : Audio Coding 3
    Commercial name             : Dolby Digital
    Codec ID                    : A_AC3
    Duration                    : 1 h 45 min
    Bit rate mode               : Constant
    Bit rate                    : 640 kb/s
    Channel(s)                  : 6 channels
    Channel layout              : L R C LFE Ls Rs
    Sampling rate               : 48.0 kHz
    Frame rate                  : 31.250 FPS (1536 SPF)
    Compression mode            : Lossy
    Stream size                 : 484 MiB (13%)
    Title                       : Español Latino [CinemaniaHDD]
    Language                    : Spanish
    Service kind                : Complete Main
    Default                     : Yes
    Forced                      : Yes

    Audio #2
    ID                          : 3
    Format                      : DTS
    Format/Info                 : Digital Theater Systems
    Codec ID                    : A_DTS
    Duration                    : 1 h 45 min
    Bit rate mode               : Constant
    Bit rate                    : 1 509 kb/s
    Channel(s)                  : 6 channels
    Channel layout              : C L R Ls Rs LFE
    Sampling rate               : 48.0 kHz
    Frame rate                  : 93.750 FPS (512 SPF)
    Bit depth                   : 24 bits
    Compression mode            : Lossy
    Stream size                 : 1.12 GiB (31%)
    Title                       : Ingles [CinemaniaHDD]
    Language                    : English
    Default                     : No
    Forced                      : No

    Text #1
    ID                          : 4
    Format                      : PGS
    Muxing mode                 : zlib
    Codec ID                    : S_HDMV/PGS
    Codec ID/Info               : Picture based subtitle format used on BDs/HD-DVDs
    Duration                    : 1 h 40 min
    Bit rate                    : 20.8 kb/s
    Count of elements           : 1770
    Stream size                 : 14.9 MiB (0%)
    Title                       : Español-PGS [CinemaniaHDD]
    Language                    : Spanish
    Default                     : No
    Forced                      : No

    Text #2
    ID                          : 5
    Format                      : PGS
    Muxing mode                 : zlib
    Codec ID                    : S_HDMV/PGS
    Codec ID/Info               : Picture based subtitle format used on BDs/HD-DVDs
    Duration                    : 1 h 39 min
    Bit rate                    : 19.9 kb/s
    Count of elements           : 1794
    Stream size                 : 14.2 MiB (0%)
    Title                       : Ingles [CinemaniaHDD]
    Language                    : English
    Default                     : No
    Forced                      : No

    Text #3
    ID                          : 6
    Format                      : UTF-8
    Codec ID                    : S_TEXT/UTF8
    Codec ID/Info               : UTF-8 Plain Text
    Duration                    : 1 h 11 min
    Bit rate                    : 0 b/s
    Count of elements           : 6
    Stream size                 : 86.0 Bytes (0%)
    Title                       : Forzados-SRT [CinemaniaHDD]
    Language                    : Spanish
    Default                     : Yes
    Forced                      : Yes

    Text #4
    ID                          : 7
    Format                      : UTF-8
    Codec ID                    : S_TEXT/UTF8
    Codec ID/Info               : UTF-8 Plain Text
    Duration                    : 1 h 39 min
    Bit rate                    : 34 b/s
    Count of elements           : 925
    Stream size                 : 24.9 KiB (0%)
    Title                       : Español-SRT [CinemaniaHDD]
    Language                    : Spanish
    Default                     : No
    Forced                      : No

    Menu
    00:00:00.000                : 00:00:00.000
    00:12:45.890                : 00:12:45.890
    00:22:22.967                : 00:22:22.967
    00:26:03.228                : 00:26:03.228
    00:30:09.224                : 00:30:09.224
    00:37:31.583                : 00:37:31.583
    00:42:46.314                : 00:42:46.314
    00:48:49.468                : 00:48:49.468
    00:56:11.702                : 00:56:11.702
    00:59:41.661                : 00:59:41.661
    01:05:57.579                : 01:05:57.579
    01:14:33.344                : 01:14:33.344
    01:21:37.351                : 01:21:37.351
    01:27:31.413                : 01:27:31.413
    01:33:33.858                : 01:33:33.858
    01:38:59.433                : 01:38:59.433

  • Peso: 3.65 GiB

Sinopsis

Descargar Insidious Capitulo 2 (2013) Full HD 1080p Latino-CMHDD. Josh y Renai Lambert se han mudado con sus hijos a la casa de Lorraine, la madre de Josh, esperando olvidar el pasado y comenzar una nueva vida. Pero pronto la familia empieza a percibir extrañas visiones y fenómenos amenazantes que los obligarán a desentrañar un oscuro secreto.

Ficha técnica

Video trailer de la película

Enlaces de descarga

Rip de Bluray

Descargar Insidious Capitulo 2 (2013) Full HD 1080p Latino-CMHDD




Aportes de DPeliculasHDmega la pass es:dpeliculashdmega.org Aportes de CinemaniaHD la pass es:cinemaniahdd.com Aportes recientes:cinemaniahdd.net

Películas relacionadas

descargar Insidious Capitulo 2 (2013) Full HD 1080p Latino-CMHDD Full 1080p 1080p gratis, Insidious Capitulo 2 (2013) Full HD 1080p Latino-CMHDD Full 1080p mega 1 link, Insidious Capitulo 2 (2013) Full HD 1080p Latino-CMHDD Full 1080p pelicula completa, descargar Insidious Capitulo 2 (2013) Full HD 1080p Latino-CMHDD Full 1080p gratis en mega.

Insidious Capitulo 2 (2013) Full HD 1080p Latino-CMHDD pelicula full hd, Insidious Capitulo 2 (2013) Full HD 1080p Latino-CMHDD mega latino, Insidious Capitulo 2 (2013) Full HD 1080p Latino-CMHDD 4k latino, Insidious Capitulo 2 (2013) Full HD 1080p Latino-CMHDD pelicula completa, Insidious Capitulo 2 (2013) Full HD 1080p Latino-CMHDD descargar gratis, descargar Insidious Capitulo 2 (2013) Full HD 1080p Latino-CMHDD pelicula latino, Insidious Capitulo 2 (2013) Full HD 1080p Latino-CMHDD 1 link mega, Insidious Capitulo 2 (2013) Full HD 1080p Latino-CMHDD 1 link google drive, Insidious Capitulo 2 (2013) Full HD 1080p Latino-CMHDD hd 1080p latino.
Comentarios 0