×

¿Problemas para descargar con Mozilla, EDGE? Deshabilita la opción "Abrir vinculos en una pestaña nueva" tal como lo muestra ésta imagen.

Insidious: La noche del demonio (2010) Full HD 1080p Latino-CMHDD

170 vistas

Información de Insidious: La noche del demonio (2010) Full HD 1080p Latino-CMHDD

Datos de la película

  • Calidad: Full 1080p
  • Audio: Se especifica abajo de la Sinopsis
  • Subtitulos: Español Latino PGS - Ingles PGS
  • Resolución: 1920x1080p
  • Formato: MKV
  • Codec: H.264
  • Encoder: CinefiloCool
  • Mediainfo: Clic para Mostrar Datos Ver
  • Insidious.2010.FullHD.1080p.Latino-CC@CMHDD.mkv
    Format                      : Matroska
    Format version              : Version 4
    File size                   : 4.21 GiB
    Duration                    : 1 h 42 min
    Overall bit rate            : 5 853 kb/s
    Movie name                  : Insidious (2010) CinemaniaHDD.Net
    Encoded date                : UTC 2023-10-31 03:54:03
    Writing application         : mkvmerge v56.1.0 ('My Friend') 64-bit
    Writing library             : libebml v1.4.2 + libmatroska v1.6.4
    Attachments                 : CINEMANIAHD.png

    Video
    ID                          : 1
    Format                      : AVC
    Format/Info                 : Advanced Video Codec
    Format profile              : High@L4.1
    Format settings             : CABAC / 4 Ref Frames
    Format settings, CABAC      : Yes
    Format settings, Reference  : 4 frames
    Codec ID                    : V_MPEG4/ISO/AVC
    Duration                    : 1 h 42 min
    Bit rate                    : 2 179 kb/s
    Width                       : 1 920 pixels
    Height                      : 1 080 pixels
    Display aspect ratio        : 16:9
    Frame rate mode             : Constant
    Frame rate                  : 23.976 (24000/1001) FPS
    Color space                 : YUV
    Chroma subsampling          : 4:2:0
    Bit depth                   : 8 bits
    Scan type                   : Progressive
    Bits/(Pixel*Frame)          : 0.044
    Stream size                 : 1.57 GiB (37%)
    Title                       : Full HD1080p [CinemaniaHDD]
    Writing library             : x264 core 163 r3059 b684ebe0
    Encoding settings           : cabac=1 / ref=4 / deblock=1:0:0 / analyse=0x3:0x133 / me=tesa / subme=11 / psy=1 / psy_rd=1.00:0.00 / mixed_ref=1 / me_range=24 / chroma_me=1 / trellis=2 / 8x8dct=1 / cqm=0 / deadzone=21,11 / fast_pskip=0 / chroma_qp_offset=-2 / threads=24 / lookahead_threads=6 / sliced_threads=0 / nr=0 / decimate=1 / interlaced=0 / bluray_compat=0 / constrained_intra=0 / bframes=16 / b_pyramid=2 / b_adapt=2 / b_bias=0 / direct=3 / weightb=1 / open_gop=0 / weightp=2 / keyint=240 / keyint_min=24 / scenecut=40 / intra_refresh=0 / rc_lookahead=60 / rc=crf / mbtree=1 / crf=20.0 / qcomp=0.60 / qpmin=0 / qpmax=69 / qpstep=4 / vbv_maxrate=62500 / vbv_bufsize=78125 / crf_max=0.0 / nal_hrd=none / filler=0 / ip_ratio=1.40 / aq=1:1.00
    Default                     : Yes
    Forced                      : Yes
    Color range                 : Limited
    Color primaries             : BT.709
    Transfer characteristics    : BT.709
    Matrix coefficients         : BT.709

    Audio #1
    ID                          : 2
    Format                      : AC-3
    Format/Info                 : Audio Coding 3
    Commercial name             : Dolby Digital
    Codec ID                    : A_AC3
    Duration                    : 1 h 42 min
    Bit rate mode               : Constant
    Bit rate                    : 640 kb/s
    Channel(s)                  : 2 channels
    Channel layout              : L R
    Sampling rate               : 48.0 kHz
    Frame rate                  : 31.250 FPS (1536 SPF)
    Compression mode            : Lossy
    Stream size                 : 471 MiB (11%)
    Title                       : Español Latino ORG MEX [CinemaniaHDD]
    Language                    : Spanish
    Service kind                : Complete Main
    Default                     : Yes
    Forced                      : Yes

    Audio #2
    ID                          : 3
    Format                      : DTS
    Format/Info                 : Digital Theater Systems
    Codec ID                    : A_DTS
    Duration                    : 1 h 42 min
    Bit rate mode               : Constant
    Bit rate                    : 1 509 kb/s
    Channel(s)                  : 6 channels
    Channel layout              : C L R Ls Rs LFE
    Sampling rate               : 48.0 kHz
    Frame rate                  : 93.750 FPS (512 SPF)
    Bit depth                   : 24 bits
    Compression mode            : Lossy
    Stream size                 : 1.08 GiB (26%)
    Title                       : Español Latino ReDub ARG [CinemaniaHDD]
    Language                    : Spanish
    Default                     : No
    Forced                      : No

    Audio #3
    ID                          : 4
    Format                      : DTS
    Format/Info                 : Digital Theater Systems
    Codec ID                    : A_DTS
    Duration                    : 1 h 42 min
    Bit rate mode               : Constant
    Bit rate                    : 1 509 kb/s
    Channel(s)                  : 6 channels
    Channel layout              : C L R Ls Rs LFE
    Sampling rate               : 48.0 kHz
    Frame rate                  : 93.750 FPS (512 SPF)
    Bit depth                   : 24 bits
    Compression mode            : Lossy
    Stream size                 : 1.08 GiB (26%)
    Title                       : Ingles [CinemaniaHDD]
    Language                    : English
    Default                     : No
    Forced                      : No

    Text #1
    ID                          : 5
    Format                      : PGS
    Muxing mode                 : zlib
    Codec ID                    : S_HDMV/PGS
    Codec ID/Info               : Picture based subtitle format used on BDs/HD-DVDs
    Duration                    : 58 min 21 s
    Bit rate                    : 326 b/s
    Count of elements           : 22
    Stream size                 : 140 KiB (0%)
    Title                       : Forzados-PGS [CinemaniaHDD]
    Language                    : Spanish
    Default                     : No
    Forced                      : No

    Text #2
    ID                          : 6
    Format                      : PGS
    Muxing mode                 : zlib
    Codec ID                    : S_HDMV/PGS
    Codec ID/Info               : Picture based subtitle format used on BDs/HD-DVDs
    Duration                    : 1 h 37 min
    Bit rate                    : 21.4 kb/s
    Count of elements           : 1670
    Stream size                 : 14.9 MiB (0%)
    Title                       : Español-PGS [CinemaniaHDD]
    Language                    : Spanish
    Default                     : No
    Forced                      : No

    Text #3
    ID                          : 7
    Format                      : PGS
    Muxing mode                 : zlib
    Codec ID                    : S_HDMV/PGS
    Codec ID/Info               : Picture based subtitle format used on BDs/HD-DVDs
    Duration                    : 1 h 32 min
    Bit rate                    : 25.2 kb/s
    Count of elements           : 1640
    Stream size                 : 16.8 MiB (0%)
    Title                       : Ingles-PGS [CinemaniaHDD]
    Language                    : English
    Default                     : No
    Forced                      : No

    Text #4
    ID                          : 8
    Format                      : UTF-8
    Codec ID                    : S_TEXT/UTF8
    Codec ID/Info               : UTF-8 Plain Text
    Duration                    : 1 h 37 min
    Bit rate                    : 0 b/s
    Count of elements           : 16
    Stream size                 : 385 Bytes (0%)
    Title                       : Forzados-SRT [CinemaniaHDD]
    Language                    : Spanish
    Default                     : Yes
    Forced                      : Yes

    Text #5
    ID                          : 9
    Format                      : UTF-8
    Codec ID                    : S_TEXT/UTF8
    Codec ID/Info               : UTF-8 Plain Text
    Duration                    : 1 h 37 min
    Bit rate                    : 34 b/s
    Count of elements           : 838
    Stream size                 : 24.7 KiB (0%)
    Title                       : Español-SRT [CinemaniaHDD]
    Language                    : Spanish
    Default                     : No
    Forced                      : No

    Menu
    00:00:00.000                : 00:00:00.000
    00:07:39.000                : 00:07:39.000
    00:11:59.218                : 00:11:59.218
    00:17:59.578                : 00:17:59.578
    00:23:46.884                : 00:23:46.884
    00:30:32.247                : 00:30:32.247
    00:35:44.893                : 00:35:44.893
    00:43:48.251                : 00:43:48.251
    00:47:34.060                : 00:47:34.060
    00:54:06.118                : 00:54:06.118
    01:01:36.526                : 01:01:36.526
    01:09:12.815                : 01:09:12.815
    01:14:06.067                : 01:14:06.067
    01:22:37.327                : 01:22:37.327
    01:27:53.393                : 01:27:53.393
    01:35:58.878                : 01:35:58.878

  • Peso: 4.21 GiB

Sinopsis

Descargar Insidious: La noche del demonio (2010) Full HD 1080p Latino-CMHDD. Una familia descubre que los espíritus oscuros han invadido su hogar después de que su hijo inexplicablemente cae en un sueño sin fin. Cuando llegan a un profesional para obtener ayuda, aprenden que las cosas son mucho más personales de lo que pensaban.

Audio Español Latino AC3 2.0 MEX – DTS 5.1 ARG – Ingles DTS 5.1

Ficha técnica

Video trailer de la película

Enlaces de descarga

Rip de Bluray

Descargar Insidious: La noche del demonio (2010) Full HD 1080p Latino-CMHDD




Aportes de DPeliculasHDmega la pass es:dpeliculashdmega.org Aportes de CinemaniaHD la pass es:cinemaniahdd.com Aportes recientes:cinemaniahdd.net

Películas relacionadas

descargar Insidious: La noche del demonio (2010) Full HD 1080p Latino-CMHDD Full 1080p 1080p gratis, Insidious: La noche del demonio (2010) Full HD 1080p Latino-CMHDD Full 1080p mega 1 link, Insidious: La noche del demonio (2010) Full HD 1080p Latino-CMHDD Full 1080p pelicula completa, descargar Insidious: La noche del demonio (2010) Full HD 1080p Latino-CMHDD Full 1080p gratis en mega.

Insidious: La noche del demonio (2010) Full HD 1080p Latino-CMHDD pelicula full hd, Insidious: La noche del demonio (2010) Full HD 1080p Latino-CMHDD mega latino, Insidious: La noche del demonio (2010) Full HD 1080p Latino-CMHDD 4k latino, Insidious: La noche del demonio (2010) Full HD 1080p Latino-CMHDD pelicula completa, Insidious: La noche del demonio (2010) Full HD 1080p Latino-CMHDD descargar gratis, descargar Insidious: La noche del demonio (2010) Full HD 1080p Latino-CMHDD pelicula latino, Insidious: La noche del demonio (2010) Full HD 1080p Latino-CMHDD 1 link mega, Insidious: La noche del demonio (2010) Full HD 1080p Latino-CMHDD 1 link google drive, Insidious: La noche del demonio (2010) Full HD 1080p Latino-CMHDD hd 1080p latino.
Comentarios 0