×

¿Problemas para descargar con Mozilla, EDGE? Deshabilita la opción "Abrir vinculos en una pestaña nueva" tal como lo muestra ésta imagen.

Inside Out (2015) REMUX 4K HDR Latino – CMHDD

223 vistas

Información de Inside Out (2015) REMUX 4K HDR Latino – CMHDD

Datos de la película

  • Calidad: 4K HDR
  • Audio: Se especifica abajo de la Sinopsis
  • Subtitulos: Español Latino PGS
  • Resolución: 3840x2160p
  • Formato: MKV
  • Codec: H.264
  • Encoder: Dracarys
  • Mediainfo: Clic para Mostrar Datos Ver
  • Format                      : Matroska
    Format version              : Version 4
    File size                   : 34.3 GiB
    Duration                    : 1 h 34 min
    Overall bit rate mode       : Variable
    Overall bit rate            : 51.8 Mb/s
    Movie name                  : Inside Out (2015) REMUX 4K HDR Latino - CMHDD
    Encoded date                : UTC 2022-04-27 04:45:30
    Writing application         : mkvmerge v17.0.0 ('Be Ur Friend') 64-bit
    Writing library             : libebml v1.3.5 + libmatroska v1.4.8

    Video
    ID                          : 1
    Format                      : HEVC
    Format/Info                 : High Efficiency Video Coding
    Format profile              : Main 10@L5.1@High
    HDR format                  : SMPTE ST 2086, HDR10 compatible
    Codec ID                    : V_MPEGH/ISO/HEVC
    Duration                    : 1 h 34 min
    Bit rate                    : 42.9 Mb/s
    Width                       : 3 840 pixels
    Height                      : 2 160 pixels
    Display aspect ratio        : 16:9
    Frame rate mode             : Constant
    Frame rate                  : 23.976 (23976/1000) FPS
    Original frame rate         : 23.976 (24000/1001) FPS
    Color space                 : YUV
    Chroma subsampling          : 4:2:0 (Type 2)
    Bit depth                   : 10 bits
    Bits/(Pixel*Frame)          : 0.216
    Stream size                 : 28.4 GiB (83%)
    Writing library             : ATEME Titan File 3.9.0 (4.9.0.0)        
    Default                     : Yes
    Forced                      : No
    Color range                 : Limited
    Color primaries             : BT.2020
    Transfer characteristics    : PQ
    Matrix coefficients         : BT.2020 non-constant
    Mastering display color pri : Display P3
    Mastering display luminance : min: 0.0000 cd/m2, max: 1000 cd/m2

    Audio #1
    ID                          : 2
    Format                      : MLP FBA 16-ch
    Format/Info                 : Meridian Lossless Packing FBA with 16-channel presentation
    Commercial name             : Dolby TrueHD with Dolby Atmos
    Codec ID                    : A_TRUEHD
    Duration                    : 1 h 34 min
    Bit rate mode               : Variable
    Bit rate                    : 6 418 kb/s
    Maximum bit rate            : 8 226 kb/s
    Channel(s)                  : 8 channels
    Channel layout              : L R C LFE Ls Rs Lb Rb
    Sampling rate               : 48.0 kHz
    Frame rate                  : 1 200.000 FPS (40 SPF)
    Compression mode            : Lossless
    Delay relative to video     : 32 ms
    Stream size                 : 4.25 GiB (12%)
    Language                    : English
    Default                     : No
    Forced                      : No
    Number of dynamic objects   : 13
    Bed channel count           : 1 channel
    Bed channel configuration   : LFE

    Audio #2
    ID                          : 3
    Format                      : AC-3
    Format/Info                 : Audio Coding 3
    Commercial name             : Dolby Digital
    Codec ID                    : A_AC3
    Duration                    : 1 h 34 min
    Bit rate mode               : Constant
    Bit rate                    : 640 kb/s
    Channel(s)                  : 6 channels
    Channel layout              : L R C LFE Ls Rs
    Sampling rate               : 48.0 kHz
    Frame rate                  : 31.250 FPS (1536 SPF)
    Compression mode            : Lossy
    Delay relative to video     : 31 ms
    Stream size                 : 434 MiB (1%)
    Language                    : English
    Service kind                : Complete Main
    Default                     : No
    Forced                      : No

    Audio #3
    ID                          : 4
    Format                      : E-AC-3
    Format/Info                 : Enhanced AC-3
    Commercial name             : Dolby Digital Plus
    Format profile              : Blu-ray Disc
    Codec ID                    : A_EAC3
    Duration                    : 1 h 34 min
    Bit rate mode               : Constant
    Bit rate                    : 896 kb/s
    Channel(s)                  : 6 channels
    Channel(s)_Original         : 8 channels
    ChannelLayout_Original      : L R C LFE Ls Rs Lrs Rrs
    Sampling rate               : 48.0 kHz
    Frame rate                  : 31.250 FPS (1536 SPF)
    Compression mode            : Lossy
    Stream size                 : 608 MiB (2%)
    Language                    : English
    Service kind                : Complete Main
    Default                     : No
    Forced                      : No

    Audio #4
    ID                          : 5
    Format                      : E-AC-3
    Format/Info                 : Enhanced AC-3
    Commercial name             : Dolby Digital Plus
    Format profile              : Blu-ray Disc
    Codec ID                    : A_EAC3
    Duration                    : 1 h 34 min
    Bit rate mode               : Constant
    Bit rate                    : 896 kb/s
    Channel(s)                  : 6 channels
    Channel(s)_Original         : 8 channels
    ChannelLayout_Original      : L R C LFE Ls Rs Lrs Rrs
    Sampling rate               : 48.0 kHz
    Frame rate                  : 31.250 FPS (1536 SPF)
    Compression mode            : Lossy
    Stream size                 : 608 MiB (2%)
    Language                    : Spanish
    Service kind                : Complete Main
    Default                     : Yes
    Forced                      : No

    Text
    ID                          : 6
    Format                      : PGS
    Muxing mode                 : zlib
    Codec ID                    : S_HDMV/PGS
    Codec ID/Info               : Picture based subtitle format used on BDs/HD-DVDs
    Duration                    : 1 h 26 min
    Bit rate                    : 45.6 kb/s
    Count of elements           : 2496
    Stream size                 : 28.4 MiB (0%)
    Language                    : Spanish
    Default                     : No
    Forced                      : No

    Menu
    00:00:00.000                : en:Chapter 1
    00:07:22.692                : en:Chapter 2
    00:11:36.779                : en:Chapter 3
    00:15:46.403                : en:Chapter 4
    00:20:02.242                : en:Chapter 5
    00:25:21.436                : en:Chapter 6
    00:26:47.063                : en:Chapter 7
    00:30:10.183                : en:Chapter 8
    00:34:45.791                : en:Chapter 9
    00:36:02.284                : en:Chapter 10
    00:37:45.304                : en:Chapter 11
    00:41:27.359                : en:Chapter 12
    00:43:35.612                : en:Chapter 13
    00:45:19.508                : en:Chapter 14
    00:46:51.850                : en:Chapter 15
    00:50:02.457                : en:Chapter 16
    00:51:34.341                : en:Chapter 17
    00:56:12.160                : en:Chapter 18
    01:00:03.683                : en:Chapter 19
    01:01:17.840                : en:Chapter 20
    01:03:50.367                : en:Chapter 21
    01:06:27.191                : en:Chapter 22
    01:11:15.771                : en:Chapter 23
    01:13:40.540                : en:Chapter 24
    01:15:38.658                : en:Chapter 25
    01:20:00.336                : en:Chapter 26
    01:23:57.198                : en:Chapter 27
    01:26:18.339                : en:Chapter 28

  • Peso: 34.3 GiB

Sinopsis

Riley es una chica que disfruta o padece toda clase de sentimientos. Aunque su vida ha estado marcada por la Alegría, también se ve afectada por otro tipo de emociones. Lo que Riley no entiende muy bien es por qué motivo tiene que existir la Tristeza en su vida. Una serie de acontecimientos hacen que Alegría y Tristeza se mezclen en una peligrosa aventura que dará un vuelco al mundo de Riley.

 

Latino; E-AC3 7.1  –  Inglés: TrueHD 7.1

Ficha técnica

Video trailer de la película

Enlaces de descarga

Rip de Bluray

Descargar Inside Out (2015) REMUX 4K HDR Latino – CMHDD


Aportes de DPeliculasHDmega la pass es:dpeliculashdmega.org Aportes de CinemaniaHD la pass es:cinemaniahdd.com
Guardado en : Animación , Aventura , Comedia , Drama , Familia

Películas relacionadas

descargar Inside Out (2015) REMUX 4K HDR Latino – CMHDD 4K HDR 1080p gratis, Inside Out (2015) REMUX 4K HDR Latino – CMHDD 4K HDR mega 1 link, Inside Out (2015) REMUX 4K HDR Latino – CMHDD 4K HDR pelicula completa, descargar Inside Out (2015) REMUX 4K HDR Latino – CMHDD 4K HDR gratis en mega.

Inside Out (2015) REMUX 4K HDR Latino – CMHDD pelicula full hd, Inside Out (2015) REMUX 4K HDR Latino – CMHDD mega latino, Inside Out (2015) REMUX 4K HDR Latino – CMHDD 4k latino, Inside Out (2015) REMUX 4K HDR Latino – CMHDD pelicula completa, Inside Out (2015) REMUX 4K HDR Latino – CMHDD descargar gratis, descargar Inside Out (2015) REMUX 4K HDR Latino – CMHDD pelicula latino, Inside Out (2015) REMUX 4K HDR Latino – CMHDD 1 link mega, Inside Out (2015) REMUX 4K HDR Latino – CMHDD 1 link google drive, Inside Out (2015) REMUX 4K HDR Latino – CMHDD hd 1080p latino.
Comentarios 0