×

¿Problemas para descargar con Mozilla, EDGE? Deshabilita la opción "Abrir vinculos en una pestaña nueva" tal como lo muestra ésta imagen.

Inside (2023) AMZN WEB-DL 1080p Latino

108 vistas

Información de Inside (2023) AMZN WEB-DL 1080p Latino

Datos de la película

  • Calidad: WEBDL
  • Audio: Español Latino AC3 5.1 WEB-DL - Ingles AC3 5.1 WEB-DL
  • Subtitulos: Español Latino SRT- FORZADOS SRT
  • Resolución: 1920x800p
  • Formato: MKV
  • Codec: H.264
  • Encoder: Melkor
  • Mediainfo: Clic para Mostrar Datos Ver
  • Inside (2023) AMZN WebDL 1080p Latino.mkv
    Format                      : Matroska
    Format version              : Version 4
    File size                   : 6.20 GiB
    Duration                    : 1 h 45 min
    Overall bit rate            : 8 376 kb/s
    Movie name                  : Inside (2023) CinemaniaHDD.Net
    Encoded date                : UTC 2023-04-05 04:03:49
    Writing application         : mkvmerge v56.1.0 ('My Friend') 64-bit
    Writing library             : libebml v1.4.2 + libmatroska v1.6.4
    Attachments                 : CINEMANIAHD.png
    Site                        : CinemaniaHDD.Net
    Uploader                    : Melkor

    Video
    ID                          : 1
    Format                      : AVC
    Format/Info                 : Advanced Video Codec
    Format profile              : High@L4
    Format settings             : CABAC / 4 Ref Frames
    Format settings, CABAC      : Yes
    Format settings, Reference  : 4 frames
    Codec ID                    : V_MPEG4/ISO/AVC
    Duration                    : 1 h 45 min
    Bit rate mode               : Constant
    Bit rate                    : 7 351 kb/s
    Nominal bit rate            : 10 000 kb/s
    Width                       : 1 920 pixels
    Height                      : 800 pixels
    Display aspect ratio        : 2.40:1
    Frame rate mode             : Constant
    Frame rate                  : 23.976 (24000/1001) FPS
    Color space                 : YUV
    Chroma subsampling          : 4:2:0
    Bit depth                   : 8 bits
    Scan type                   : Progressive
    Bits/(Pixel*Frame)          : 0.200
    Stream size                 : 5.44 GiB (88%)
    Title                       : Web HD1080p [CinemaniaHDD]
    Default                     : Yes
    Forced                      : Yes
    Color range                 : Limited
    Color primaries             : BT.709
    Transfer characteristics    : BT.709
    Matrix coefficients         : BT.709

    Audio #1
    ID                          : 2
    Format                      : AC-3
    Format/Info                 : Audio Coding 3
    Commercial name             : Dolby Digital
    Codec ID                    : A_AC3
    Duration                    : 1 h 45 min
    Bit rate mode               : Constant
    Bit rate                    : 384 kb/s
    Channel(s)                  : 6 channels
    Channel layout              : L R C LFE Ls Rs
    Sampling rate               : 48.0 kHz
    Frame rate                  : 31.250 FPS (1536 SPF)
    Compression mode            : Lossy
    Delay relative to video     : 27 ms
    Stream size                 : 291 MiB (5%)
    Title                       : Español Latino [CinemaniaHDD]
    Language                    : Spanish
    Service kind                : Complete Main
    Default                     : Yes
    Forced                      : Yes

    Audio #2
    ID                          : 3
    Format                      : E-AC-3
    Format/Info                 : Enhanced AC-3
    Commercial name             : Dolby Digital Plus
    Codec ID                    : A_EAC3
    Duration                    : 1 h 45 min
    Bit rate mode               : Constant
    Bit rate                    : 640 kb/s
    Channel(s)                  : 6 channels
    Channel layout              : L R C LFE Ls Rs
    Sampling rate               : 48.0 kHz
    Frame rate                  : 31.250 FPS (1536 SPF)
    Compression mode            : Lossy
    Stream size                 : 485 MiB (8%)
    Title                       : Ingles [CinemaniaHDD]
    Language                    : English
    Service kind                : Complete Main
    Default                     : No
    Forced                      : No

    Text #1
    ID                          : 4
    Format                      : UTF-8
    Codec ID                    : S_TEXT/UTF8
    Codec ID/Info               : UTF-8 Plain Text
    Duration                    : 1 h 30 min
    Bit rate                    : 0 b/s
    Count of elements           : 15
    Stream size                 : 315 Bytes (0%)
    Title                       : Forzados-SRT [CinemaniaHDD]
    Language                    : Spanish
    Default                     : Yes
    Forced                      : Yes

    Text #2
    ID                          : 5
    Format                      : UTF-8
    Codec ID                    : S_TEXT/UTF8
    Codec ID/Info               : UTF-8 Plain Text
    Duration                    : 1 h 43 min
    Bit rate                    : 16 b/s
    Count of elements           : 421
    Stream size                 : 12.6 KiB (0%)
    Title                       : Español-SRT [CinemaniaHDD]
    Language                    : Spanish
    Default                     : No
    Forced                      : No

    Text #3
    ID                          : 6
    Format                      : UTF-8
    Codec ID                    : S_TEXT/UTF8
    Codec ID/Info               : UTF-8 Plain Text
    Duration                    : 1 h 43 min
    Bit rate                    : 20 b/s
    Count of elements           : 540
    Stream size                 : 15.3 KiB (0%)
    Title                       : Ingles-SRT [CinemaniaHDD]
    Language                    : English
    Default                     : No
    Forced                      : No

  • Peso: 6.20 GiB

Sinopsis

Descargar Inside (2023) AMZN WEB-DL 1080p Latino. Un ladrón de arte de alto nivel, Nemo (Willem Dafoe), queda atrapado y sin posibilidad de salir en un lujoso ático de alta tecnología en Times Square, Nueva York, después de que su atraco no sale como estaba planeado.

Ficha técnica

  • Titulo original: Inside
  • Fecha de lanzamiento: 09-03-2023 (Belgium, Germany, Greece, Switzerland, United Kingdom)
  • Director: Vasilis Katsoupis
  • Género: Drama, Suspenso

Video trailer de la película

Enlaces de descarga

Rip de Bluray

Descargar Inside (2023) AMZN WEB-DL 1080p Latino




Aportes de DPeliculasHDmega la pass es:dpeliculashdmega.org Aportes de CinemaniaHD la pass es:cinemaniahdd.com
Guardado en : Drama , Suspenso

Películas relacionadas

  • Sustitutos (2023) HD 1080p Latino

    Sustitutos (2023) HD 1080p Latino

    2023
    Sustitutos (2023) HD 1080p Latino

    1h 35m 2023

    Descargar Sustitutos (2023) HD 1080p Latino. Faye intenta reemplazar a su esposo recién fallecido, Evan,...

    Director: April Mullen

    Género: Ciencia ficción

    Actores: Zarrin Darnell-Martin

  • Sustitutos (2023) PLACEBO Full HD 1080p Latino

    Sustitutos (2023) PLACEBO Full HD 1080p Latino

    2023
    Sustitutos (2023) PLACEBO Full HD 1080p Latino

    1h 35m 2023

    Descargar Sustitutos (2023) PLACEBO Full HD 1080p Latino. Faye intenta reemplazar a su esposo recién...

    Director: April Mullen

    Género: Ciencia ficción

    Actores: Zarrin Darnell-Martin

  • Sustitutos (2023) REMUX 1080p Latino

    Sustitutos (2023) REMUX 1080p Latino

    2023
    Sustitutos (2023) REMUX 1080p Latino

    1h 35m 2023

    Descargar Sustitutos (2023) REMUX 1080p Latino. Faye intenta reemplazar a su esposo recién fallecido,...

    Director: April Mullen

    Género: Ciencia ficción

    Actores: Zarrin Darnell-Martin

descargar Inside (2023) AMZN WEB-DL 1080p Latino WEBDL 1080p gratis, Inside (2023) AMZN WEB-DL 1080p Latino WEBDL mega 1 link, Inside (2023) AMZN WEB-DL 1080p Latino WEBDL pelicula completa, descargar Inside (2023) AMZN WEB-DL 1080p Latino WEBDL gratis en mega.

Inside (2023) AMZN WEB-DL 1080p Latino pelicula full hd, Inside (2023) AMZN WEB-DL 1080p Latino mega latino, Inside (2023) AMZN WEB-DL 1080p Latino 4k latino, Inside (2023) AMZN WEB-DL 1080p Latino pelicula completa, Inside (2023) AMZN WEB-DL 1080p Latino descargar gratis, descargar Inside (2023) AMZN WEB-DL 1080p Latino pelicula latino, Inside (2023) AMZN WEB-DL 1080p Latino 1 link mega, Inside (2023) AMZN WEB-DL 1080p Latino 1 link google drive, Inside (2023) AMZN WEB-DL 1080p Latino hd 1080p latino.
Comentarios 0