×

¿Problemas para descargar con Mozilla, EDGE? Deshabilita la opción "Abrir vinculos en una pestaña nueva" tal como lo muestra ésta imagen.

Corazón de tinta (2008) Full HD 1080p Latino

420 vistas

Información de Corazón de tinta (2008) Full HD 1080p Latino

Datos de la película

  • Calidad: Full 1080p
  • Audio: Se especifica abajo de la Sinopsis
  • Subtitulos: Español Latino SRT- FORZADOS SRT
  • Resolución: 1920x1080p
  • Formato: MKV
  • Codec: H.264
  • Encoder: CinefiloCool
  • Mediainfo: Clic para Mostrar Datos Ver
  • Corazon De Tinta (2008) Full HD 1080p Latino-CMHDD.mkv Format                      : Matroska Format version              : Version 4 File size                   : 5.46 GiB Duration                    : 1 h 46 min Overall bit rate mode       : Variable Overall bit rate            : 7 372 kb/s Movie name                  : Inkheart (2008) CinemaniaHDD.Net Encoded date                : UTC 2023-01-30 19:35:54 Writing application         : mkvmerge v56.1.0 ('My Friend') 64-bit Writing library             : libebml v1.4.2 + libmatroska v1.6.4 Attachments                 : CINEMANIAHD.png Video ID                          : 1 Format                      : AVC Format/Info                 : Advanced Video Codec Format profile              : High@L4.1 Format settings             : CABAC / 4 Ref Frames Format settings, CABAC      : Yes Format settings, Reference  : 4 frames Codec ID                    : V_MPEG4/ISO/AVC Duration                    : 1 h 46 min Bit rate                    : 4 748 kb/s Width                       : 1 920 pixels Height                      : 1 080 pixels Display aspect ratio        : 16:9 Frame rate mode             : Constant Frame rate                  : 23.976 (24000/1001) FPS Color space                 : YUV Chroma subsampling          : 4:2:0 Bit depth                   : 8 bits Scan type                   : Progressive Bits/(Pixel*Frame)          : 0.096 Stream size                 : 3.52 GiB (64%) Title                       : Full HD1080p [CinemaniaHDD] Writing library             : x264 core 163 r3059 b684ebe0 Encoding settings           : cabac=1 / ref=4 / deblock=1:-1:-1 / analyse=0x3:0x133 / me=tesa / subme=11 / psy=1 / psy_rd=1.00:0.15 / mixed_ref=1 / me_range=24 / chroma_me=1 / trellis=2 / 8x8dct=1 / cqm=0 / deadzone=21,11 / fast_pskip=0 / chroma_qp_offset=-3 / threads=24 / lookahead_threads=6 / sliced_threads=0 / nr=0 / decimate=1 / interlaced=0 / bluray_compat=0 / constrained_intra=0 / bframes=16 / b_pyramid=2 / b_adapt=2 / b_bias=0 / direct=3 / weightb=1 / open_gop=0 / weightp=2 / keyint=240 / keyint_min=24 / scenecut=40 / intra_refresh=0 / rc_lookahead=60 / rc=crf / mbtree=1 / crf=20.0 / qcomp=0.60 / qpmin=0 / qpmax=69 / qpstep=4 / vbv_maxrate=62500 / vbv_bufsize=78125 / crf_max=0.0 / nal_hrd=none / filler=0 / ip_ratio=1.40 / aq=1:1.00 Default                     : Yes Forced                      : Yes Color range                 : Limited Color primaries             : BT.709 Transfer characteristics    : BT.709 Matrix coefficients         : BT.709 Audio #1 ID                          : 2 Format                      : AC-3 Format/Info                 : Audio Coding 3 Commercial name             : Dolby Digital Codec ID                    : A_AC3 Duration                    : 1 h 46 min Bit rate mode               : Constant Bit rate                    : 448 kb/s Channel(s)                  : 6 channels Channel layout              : L R C LFE Ls Rs Sampling rate               : 48.0 kHz Frame rate                  : 31.250 FPS (1536 SPF) Compression mode            : Lossy Stream size                 : 340 MiB (6%) Title                       : Español Latino [CinemaniaHDD] Language                    : Spanish Service kind                : Complete Main Default                     : Yes Forced                      : Yes Audio #2 ID                          : 3 ID in the original source m : 4352 (0x1100) Format                      : MLP FBA Format/Info                 : Meridian Lossless Packing FBA Commercial name             : Dolby TrueHD Codec ID                    : A_TRUEHD Duration                    : 1 h 46 min Bit rate mode               : Variable Bit rate                    : 1 454 kb/s Maximum bit rate            : 2 376 kb/s Channel(s)                  : 6 channels Channel layout              : L R C LFE Ls Rs Sampling rate               : 48.0 kHz Frame rate                  : 1 200.000 FPS (40 SPF) Compression mode            : Lossless Stream size                 : 1.08 GiB (20%) Title                       : Ingles-THD [CinemaniaHDD] Language                    : English Default                     : No Forced                      : No Original source medium      : Blu-ray Audio #3 ID                          : 4 ID in the original source m : 4352 (0x1100) Format                      : AC-3 Format/Info                 : Audio Coding 3 Commercial name             : Dolby Digital Codec ID                    : A_AC3 Duration                    : 1 h 46 min Bit rate mode               : Constant Bit rate                    : 640 kb/s Channel(s)                  : 6 channels Channel layout              : L R C LFE Ls Rs Sampling rate               : 48.0 kHz Frame rate                  : 31.250 FPS (1536 SPF) Compression mode            : Lossy Stream size                 : 485 MiB (9%) Title                       : Ingles-AC3 [CinemaniaHDD] Language                    : English Service kind                : Complete Main Default                     : No Forced                      : No Original source medium      : Blu-ray Text #1 ID                          : 5 Format                      : UTF-8 Codec ID                    : S_TEXT/UTF8 Codec ID/Info               : UTF-8 Plain Text Duration                    : 6 s 0 ms Bit rate                    : 21 b/s Count of elements           : 1 Stream size                 : 16.0 Bytes (0%) Title                       : Forzados-SRT [CinemaniaHDD] Language                    : Spanish Default                     : Yes Forced                      : Yes Text #2 ID                          : 6 Format                      : UTF-8 Codec ID                    : S_TEXT/UTF8 Codec ID/Info               : UTF-8 Plain Text Duration                    : 1 h 37 min Bit rate                    : 61 b/s Count of elements           : 1256 Stream size                 : 44.0 KiB (0%) Title                       : Español-SRT [CinemaniaHDD] Language                    : Spanish Default                     : No Forced                      : No Text #3 ID                          : 7 ID in the original source m : 4609 (0x1201) Format                      : PGS Muxing mode                 : zlib Codec ID                    : S_HDMV/PGS Codec ID/Info               : Picture based subtitle format used on BDs/HD-DVDs Duration                    : 1 h 45 min Bit rate                    : 30.9 kb/s Count of elements           : 2528 Stream size                 : 23.3 MiB (0%) Title                       : Ingles [CinemaniaHDD] Language                    : English Default                     : No Forced                      : No Original source medium      : Blu-ray Menu 00:00:00.000                : Chapter 01 00:04:27.100                : Chapter 02 00:09:59.056                : Chapter 03 00:13:31.769                : Chapter 04 00:16:49.299                : Chapter 05 00:20:49.706                : Chapter 06 00:26:36.136                : Chapter 07 00:30:25.114                : Chapter 08 00:35:00.181                : Chapter 09 00:40:20.584                : Chapter 10 00:46:15.022                : Chapter 11 00:48:41.835                : Chapter 12 00:52:42.033                : Chapter 13 00:57:24.941                : Chapter 14 01:00:47.185                : Chapter 15 01:04:30.116                : Chapter 16 01:07:24.915                : Chapter 17 01:11:29.201                : Chapter 18 01:15:56.426                : Chapter 19 01:20:19.940                : Chapter 20 01:24:08.626                : Chapter 21 01:27:46.344                : Chapter 22 01:32:12.276                : Chapter 23 01:35:20.589                : Chapter 24 01:38:21.812                : Chapter 25
  • Peso: 5.46 GiB

Sinopsis

Descargar Corazón de tinta (2008) Full HD 1080p Latino. Mortimer “Mo” Folchart y su hija de 12 años, Meggie, comparten su pasión por los libros. También comparten un don, ellos pueden hacer aparecer en la vida real a los personajes de los libros que están leyendo; si los leen en voz alta. Pero un peligro acecha: por cada personaje de fantasía que llega al mundo real, una persona real desaparece en el mundo de fantasía. En una de sus visitas a una vieja librería, Mo escucha voces que no había oído en años, y cuando reconoce de qué libro vienen, siente un escalofrío que corre por su espalda.

Audio Español Latino AC3 5.1 DVD – Ingles TrueHD 5.1 + AC3 5.1 Bluray

Ficha técnica

Video trailer de la película

Enlaces de descarga

Rip de Bluray

Descargar Corazón de tinta (2008) Full HD 1080p Latino




Aportes de DPeliculasHDmega la pass es:dpeliculashdmega.org Aportes de CinemaniaHD la pass es:cinemaniahdd.com Aportes recientes:cinemaniahdd.net

Películas relacionadas

  • The Chosen (2024) Temorada 4 WEB-DL 1080p Latino

    The Chosen (2024) Temorada 4 WEB-DL 1080p Latino

    2019
    The Chosen (2024) Temorada 4 WEB-DL 1080p Latino

    0h 43m 2019

    Por primera vez, la historia más grande jamás contada se presenta en una serie de varias temporadas....

    Director: Dallas Jenkins

    Género: Drama

    Actores: Yasmine Al-Bustami

  • Tiburón (1975) REMUX 1080p Latino-CMHDD

    Tiburón (1975) REMUX 1080p Latino-CMHDD

    1975
    Tiburón (1975) REMUX 1080p Latino-CMHDD

    2h 4m 1975

    Descargar Tiburón (1975) REMUX 1080p Latino-CMHDD. En la costa de un pequeño pueblo del Este de Estados...

    Director: Tom Joyner

    Género: Aventura

    Actores: Ted Grossman

  • Oblivion (2013) REMUX 4K HDR Latino – CMHDD

    Oblivion (2013) REMUX 4K HDR Latino – CMHDD

    2013
    Oblivion (2013) REMUX 4K HDR Latino – CMHDD

    2 h 4 min 2013

    Jack Harper es uno de los últimos técnicos de reparación de drones que permanece en la Tierra. Parte...

    Director: Joseph Kosinski

    Género: 4K HDR

    Actores: Zoë Bell

descargar Corazón de tinta (2008) Full HD 1080p Latino Full 1080p 1080p gratis, Corazón de tinta (2008) Full HD 1080p Latino Full 1080p mega 1 link, Corazón de tinta (2008) Full HD 1080p Latino Full 1080p pelicula completa, descargar Corazón de tinta (2008) Full HD 1080p Latino Full 1080p gratis en mega.

Corazón de tinta (2008) Full HD 1080p Latino pelicula full hd, Corazón de tinta (2008) Full HD 1080p Latino mega latino, Corazón de tinta (2008) Full HD 1080p Latino 4k latino, Corazón de tinta (2008) Full HD 1080p Latino pelicula completa, Corazón de tinta (2008) Full HD 1080p Latino descargar gratis, descargar Corazón de tinta (2008) Full HD 1080p Latino pelicula latino, Corazón de tinta (2008) Full HD 1080p Latino 1 link mega, Corazón de tinta (2008) Full HD 1080p Latino 1 link google drive, Corazón de tinta (2008) Full HD 1080p Latino hd 1080p latino.
Comentarios 0