×

¿Problemas para descargar con Mozilla, EDGE? Deshabilita la opción "Abrir vinculos en una pestaña nueva" tal como lo muestra ésta imagen.

Initial D (2005) HD 1080p SUB – CMHDD

454 vistas

Información de Initial D (2005) HD 1080p SUB – CMHDD

Datos de la película

  • Calidad: 1080p
  • Audio: Se especifica abajo de la Sinopsis
  • Subtitulos: Español Latino SRT
  • Resolución: 1920x816p
  • Formato: MKV
  • Codec: H.264
  • Encoder: Dracarys
  • Mediainfo: Clic para Mostrar Datos Ver
  • Format                      : Matroska
    Format version              : Version 4
    File size                   : 3.11 GiB
    Duration                    : 1 h 48 min
    Overall bit rate            : 4 087 kb/s
    Movie name                  : Initial D (2005) HD 1080p SUB - CMHDD
    Encoded date                : UTC 2020-09-25 23:21:00
    Writing application         : mkvmerge v46.0.0 ('No Deeper Escape') 64-bit
    Writing library             : libebml v1.3.10 + libmatroska v1.5.2

    Video
    ID                          : 1
    Format                      : AVC
    Format/Info                 : Advanced Video Codec
    Format profile              : High@L4.1
    Format settings             : CABAC / 5 Ref Frames
    Format settings, CABAC      : Yes
    Format settings, Reference  : 5 frames
    Codec ID                    : V_MPEG4/ISO/AVC
    Duration                    : 1 h 48 min
    Bit rate                    : 3 500 kb/s
    Width                       : 1 920 pixels
    Height                      : 816 pixels
    Display aspect ratio        : 2.35:1
    Frame rate mode             : Constant
    Frame rate                  : 24.000 FPS
    Color space                 : YUV
    Chroma subsampling          : 4:2:0
    Bit depth                   : 8 bits
    Scan type                   : Progressive
    Bits/(Pixel*Frame)          : 0.093
    Stream size                 : 2.62 GiB (84%)
    Writing library             : x264 core 157 r2935 545de2f
    Encoding settings           : cabac=1 / ref=5 / deblock=1:0:0 / analyse=0x3:0x113 / me=hex / subme=8 / psy=1 / psy_rd=1.00:0.00 / mixed_ref=1 / me_range=16 / chroma_me=1 / trellis=2 / 8x8dct=1 / cqm=0 / deadzone=21,11 / fast_pskip=1 / chroma_qp_offset=-2 / threads=24 / lookahead_threads=4 / sliced_threads=0 / nr=0 / decimate=1 / interlaced=0 / bluray_compat=0 / constrained_intra=0 / bframes=3 / b_pyramid=2 / b_adapt=1 / b_bias=0 / direct=3 / weightb=1 / open_gop=0 / weightp=2 / keyint=240 / keyint_min=24 / scenecut=40 / intra_refresh=0 / rc_lookahead=50 / rc=abr / mbtree=1 / bitrate=3500 / ratetol=1.0 / qcomp=0.60 / qpmin=0 / qpmax=69 / qpstep=4 / vbv_maxrate=62500 / vbv_bufsize=78125 / nal_hrd=none / filler=0 / ip_ratio=1.40 / aq=1:1.00
    Default                     : Yes
    Forced                      : No
    Color range                 : Limited
    Color primaries             : BT.709
    Transfer characteristics    : BT.709
    Matrix coefficients         : BT.709

    Audio
    ID                          : 2
    Format                      : AC-3
    Format/Info                 : Audio Coding 3
    Commercial name             : Dolby Digital
    Codec ID                    : A_AC3
    Duration                    : 1 h 48 min
    Bit rate mode               : Constant
    Bit rate                    : 640 kb/s
    Channel(s)                  : 6 channels
    Channel layout              : L R C LFE Ls Rs
    Sampling rate               : 48.0 kHz
    Frame rate                  : 31.250 FPS (1536 SPF)
    Compression mode            : Lossy
    Delay relative to video     : -5 ms
    Stream size                 : 498 MiB (16%)
    Language                    : Chinese
    Service kind                : Complete Main
    Default                     : Yes
    Forced                      : No

    Text
    ID                          : 3
    Format                      : UTF-8
    Codec ID                    : S_TEXT/UTF8
    Codec ID/Info               : UTF-8 Plain Text
    Duration                    : 1 h 40 min
    Bit rate                    : 36 b/s
    Count of elements           : 974
    Stream size                 : 26.9 KiB (0%)
    Language                    : Spanish
    Default                     : Yes
    Forced                      : No

  • Peso: 3.11 GiB

Sinopsis

Durante años Takumi ha entregado en su Toyota AE86 el tofu que elabora su padre. Esto no solo lo ha convertido en un buen conductor, sino que le ha servido para perfeccionar su arte del driffting. Una noche lo desafían a correr contra un GTR y la inesperada victoria final despierta al dios de las carreras que corre por sus venas. Ahora, su nieva fama lo lleva a peligrosas carreras con pilotos profesionales que aspiran a vencerlo.

 

 

CHINO: AC-3 5.1

Ficha técnica

Video trailer de la película

Enlaces de descarga

Rip de Bluray

Descargar Initial D (2005) HD 1080p SUB – CMHDD




Aportes de DPeliculasHDmega la pass es:dpeliculashdmega.org Aportes de CinemaniaHD la pass es:cinemaniahdd.com
Guardado en : Acción , Crimen , Drama , HD 1080p , Suspenso

Películas relacionadas

  • Un mundo extraño (2022) HD 1080p Latino

    Un mundo extraño (2022) HD 1080p Latino

    2022
    Un mundo extraño (2022) HD 1080p Latino

    1h 42m 2022

    Descargar Un mundo extraño (2022) HD 1080p Latino. Los Clades son una familia conocida en todo el mundo,...

    Director: Thai Bettistea

    Género: Animación

    Actores: Reed Buck

  • Lobo Vikingo (2022) NF WEB-DL 1080p Latino

    Lobo Vikingo (2022) NF WEB-DL 1080p Latino

    2022
    Lobo Vikingo (2022) NF WEB-DL 1080p Latino

    1h 38m 2022

    Descargar Lobo Vikingo (2022) NF WEB-DL 1080p Latino. Thale (17) acaba de mudarse con sus padres a un...

    Director: Stig Svendsen

    Género: Netflix

    Actores: Vidar Magnussen

  • Stromboli (2022) NF WEB-DL 1080p Latino

    Stromboli (2022) NF WEB-DL 1080p Latino

    2022
    Stromboli (2022) NF WEB-DL 1080p Latino

    1h 26m 2022

    Descargar Stromboli (2022) NF WEB-DL 1080p Latino. Sara, una mujer que se ha divorciado recientemente,...

    Director: Michiel van Erp

    Género: Drama

    Actores: Tim McInnerny

  • Infiesto (2023) NF WEB-DL 1080p Castellano

    Infiesto (2023) NF WEB-DL 1080p Castellano

    2023
    Infiesto (2023) NF WEB-DL 1080p Castellano

    1h 36m 2023

    Descargar Infiesto (2023) NF WEB-DL 1080p Castellano. Mientras el coronavirus trastoca sus vidas, dos...

    Director: Patxi Amezcua

    Género: Crimen

    Actores: Luis Zahera

descargar Initial D (2005) HD 1080p SUB – CMHDD 1080p 1080p gratis, Initial D (2005) HD 1080p SUB – CMHDD 1080p mega 1 link, Initial D (2005) HD 1080p SUB – CMHDD 1080p pelicula completa, descargar Initial D (2005) HD 1080p SUB – CMHDD 1080p gratis en mega.

Initial D (2005) HD 1080p SUB – CMHDD pelicula full hd, Initial D (2005) HD 1080p SUB – CMHDD mega latino, Initial D (2005) HD 1080p SUB – CMHDD 4k latino, Initial D (2005) HD 1080p SUB – CMHDD pelicula completa, Initial D (2005) HD 1080p SUB – CMHDD descargar gratis, descargar Initial D (2005) HD 1080p SUB – CMHDD pelicula latino, Initial D (2005) HD 1080p SUB – CMHDD 1 link mega, Initial D (2005) HD 1080p SUB – CMHDD 1 link google drive, Initial D (2005) HD 1080p SUB – CMHDD hd 1080p latino.
Comentarios 0