Iniciación (2021) PLACEBO Full HD 1080p Latino

12 vistas
1 estrella2 estrellas3 estrellas4 estrellas5 estrellas (Ninguna valoración todavía)
Cargando...

Información de Iniciación (2021) PLACEBO Full HD 1080p Latino

Datos de la película

  • Calidad: Full 1080p
  • Audio: Español Latino AC3 2.0 WEB-DL - Ingles DTS 5.1 BLURAY
  • Subtitulos: Español Latino PGS - Ingles PGS
  • Resolución: 1920x1080p
  • Formato: MKV
  • Codec: H.264
  • Encoder: Melkor
  • Mediainfo: Clic para Mostrar Datos Ver
  • Iniciacion (2021) PLACEBO Full HD 1080p Latino.mkv
    Format                      : Matroska
    Format version              : Version 4
    File size                   : 4.27 GiB
    Duration                    : 1 h 37 min
    Overall bit rate mode       : Variable
    Overall bit rate            : 6 260 kb/s
    Movie name                  : Initiation (2021) CinemaniaHDD.Net
    Encoded date                : UTC 2021-07-18 23:26:17
    Writing application         : mkvmerge v56.1.0 ('My Friend') 64-bit
    Writing library             : libebml v1.4.2 + libmatroska v1.6.4
    Attachments                 : CINEMANIAHD.png

    Video
    ID                          : 1
    Format                      : AVC
    Format/Info                 : Advanced Video Codec
    Format profile              : High@L4.1
    Format settings             : CABAC / 4 Ref Frames
    Format settings, CABAC      : Yes
    Format settings, Reference  : 4 frames
    Codec ID                    : V_MPEG4/ISO/AVC
    Duration                    : 1 h 37 min
    Bit rate                    : 2 454 kb/s
    Width                       : 1 920 pixels
    Height                      : 1 080 pixels
    Display aspect ratio        : 16:9
    Frame rate mode             : Constant
    Frame rate                  : 23.976 (24000/1001) FPS
    Color space                 : YUV
    Chroma subsampling          : 4:2:0
    Bit depth                   : 8 bits
    Scan type                   : Progressive
    Bits/(Pixel*Frame)          : 0.049
    Stream size                 : 1.67 GiB (39%)
    Title                       : Full HD1080p [CinemaniaHDD]
    Writing library             : x264 core 157 r2935 545de2f
    Encoding settings           : cabac=1 / ref=4 / deblock=1:0:0 / analyse=0x3:0x133 / me=tesa / subme=11 / psy=1 / psy_rd=1.00:0.00 / mixed_ref=1 / me_range=24 / chroma_me=1 / trellis=2 / 8x8dct=1 / cqm=0 / deadzone=21,11 / fast_pskip=0 / chroma_qp_offset=-2 / threads=24 / lookahead_threads=6 / sliced_threads=0 / nr=0 / decimate=1 / interlaced=0 / bluray_compat=0 / constrained_intra=0 / bframes=16 / b_pyramid=2 / b_adapt=2 / b_bias=0 / direct=3 / weightb=1 / open_gop=0 / weightp=2 / keyint=240 / keyint_min=24 / scenecut=40 / intra_refresh=0 / rc_lookahead=60 / rc=crf / mbtree=1 / crf=19.0 / qcomp=0.60 / qpmin=0 / qpmax=69 / qpstep=4 / vbv_maxrate=62500 / vbv_bufsize=78125 / crf_max=0.0 / nal_hrd=none / filler=0 / ip_ratio=1.40 / aq=1:1.00
    Default                     : Yes
    Forced                      : Yes
    Color range                 : Limited
    Color primaries             : BT.709
    Transfer characteristics    : BT.709
    Matrix coefficients         : BT.709

    Audio #1
    ID                          : 2
    Format                      : AC-3
    Format/Info                 : Audio Coding 3
    Commercial name             : Dolby Digital
    Codec ID                    : A_AC3
    Duration                    : 1 h 37 min
    Bit rate mode               : Constant
    Bit rate                    : 256 kb/s
    Channel(s)                  : 2 channels
    Channel layout              : L R
    Sampling rate               : 48.0 kHz
    Frame rate                  : 31.250 FPS (1536 SPF)
    Compression mode            : Lossy
    Stream size                 : 179 MiB (4%)
    Title                       : Español Latino [CinemaniaHDD]
    Language                    : Spanish
    Service kind                : Complete Main
    Default                     : Yes
    Forced                      : Yes

    Audio #2
    ID                          : 3
    Format                      : DTS XLL
    Format/Info                 : Digital Theater Systems
    Commercial name             : DTS-HD Master Audio
    Codec ID                    : A_DTS
    Duration                    : 1 h 37 min
    Bit rate mode               : Variable
    Bit rate                    : 3 513 kb/s
    Channel(s)                  : 6 channels
    Channel layout              : C L R Ls Rs LFE
    Sampling rate               : 48.0 kHz
    Frame rate                  : 93.750 FPS (512 SPF)
    Bit depth                   : 24 bits
    Compression mode            : Lossless
    Stream size                 : 2.40 GiB (56%)
    Title                       : Ingles [CinemaniaHDD]
    Language                    : English
    Default                     : No
    Forced                      : No

    Text #1
    ID                          : 4
    Format                      : PGS
    Muxing mode                 : zlib
    Codec ID                    : S_HDMV/PGS
    Codec ID/Info               : Picture based subtitle format used on BDs/HD-DVDs
    Duration                    : 1 h 29 min
    Bit rate                    : 32.8 kb/s
    Count of elements           : 2422
    Stream size                 : 21.1 MiB (0%)
    Title                       : Español-PGS [CinemaniaHDD]
    Language                    : Spanish
    Default                     : No
    Forced                      : No

    Text #2
    ID                          : 5
    Format                      : PGS
    Muxing mode                 : zlib
    Codec ID                    : S_HDMV/PGS
    Codec ID/Info               : Picture based subtitle format used on BDs/HD-DVDs
    Duration                    : 1 h 30 min
    Bit rate                    : 36.9 kb/s
    Count of elements           : 2648
    Stream size                 : 23.9 MiB (1%)
    Title                       : Ingles-PGS [CinemaniaHDD]
    Language                    : English
    Default                     : No
    Forced                      : No

    Text #3
    ID                          : 6
    Format                      : UTF-8
    Codec ID                    : S_TEXT/UTF8
    Codec ID/Info               : UTF-8 Plain Text
    Duration                    : 1 h 30 min
    Bit rate                    : 3 b/s
    Count of elements           : 71
    Stream size                 : 2.38 KiB (0%)
    Title                       : Forzados-SRT [CinemaniaHDD]
    Language                    : Spanish
    Default                     : Yes
    Forced                      : Yes

    Text #4
    ID                          : 7
    Format                      : UTF-8
    Codec ID                    : S_TEXT/UTF8
    Codec ID/Info               : UTF-8 Plain Text
    Duration                    : 1 h 35 min
    Bit rate                    : 49 b/s
    Count of elements           : 1216
    Stream size                 : 34.8 KiB (0%)
    Title                       : Español-SRT [CinemaniaHDD]
    Language                    : Spanish
    Default                     : No
    Forced                      : No

    Menu
    00:00:00.000                : Chapter 01
    00:04:22.679                : Chapter 02
    00:11:50.501                : Chapter 03
    00:18:48.794                : Chapter 04
    00:26:03.437                : Chapter 05
    00:30:47.012                : Chapter 06
    00:37:25.243                : Chapter 07
    00:42:06.357                : Chapter 08
    00:48:10.554                : Chapter 09
    00:53:30.082                : Chapter 10
    00:58:12.906                : Chapter 11
    01:03:12.956                : Chapter 12
    01:10:10.790                : Chapter 13
    01:14:56.492                : Chapter 14
    01:19:13.499                : Chapter 15
    01:29:04.130                : Chapter 16

  • Peso: 4.27 GiB

Sinopsis

Descargar Iniciación (2021) PLACEBO Full HD 1080p Latino. Una ola de asesinatos desata el pánico en la universidad de Whiton. Todos los crímenes tienen como nexo las redes sociales, y tres amigas de una sororidad deciden investigarlos, poniendo al descubierto los secretos más oscuros de la academia.

Ficha técnica

Video trailer de la película

Enlaces de descarga

Rip de Bluray

Descargar Iniciación (2021) PLACEBO Full HD 1080p Latino




Aportes de DPeliculasHDmega la pass es:dpeliculashdmega.org Aportes de CinemaniaHD la pass es:cinemaniahdd.com

Películas relacionadas

  • En liberté! (2018) WEB-DL 1080p Latino

    En liberté! (2018) WEB-DL 1080p Latino

    2018
    En liberté! (2018) WEB-DL 1080p Latino

    5.0 1h 48m 2018

    El detective Yvonne es la viuda del jefe de policía Santi, un héroe local en un pueblo de la Riviera...

    Director: Pierre Salvadori

    Género: Comedia

    Actores: Vincent Elbaz

  • The Hatred (2017) WEB-DL 1080p Latino

    The Hatred (2017) WEB-DL 1080p Latino

    2017
    The Hatred (2017) WEB-DL 1080p Latino

    5.0 1h 34m 2017

    Cuatro mujeres jóvenes viajan a la nueva casa de campo de su profesor universitario para una escapada...

    Director: Michael G. Kehoe

    Género: Suspenso

    Actores: Tim DeZarn

  • S.W.A.T (2019) WEB-DL 1080p Latino

    S.W.A.T (2019) WEB-DL 1080p Latino

    2019
    S.W.A.T (2019) WEB-DL 1080p Latino

    5.0 0h 0m 2019

    Una Unidad de Fuerzas Especiales ha organizado una serie de ejercicios de combate para seleccionar a...

    Director: Ding Sheng

    Género: Acción

    Actores: Zhao Xiaorui

  • Servants of War (2019) WEB-DL 1080p Latino

    Servants of War (2019) WEB-DL 1080p Latino

    2019
    Servants of War (2019) WEB-DL 1080p Latino

    5.0 1h 38m 2019

    El conocido profesor Professor Jerzy Abramski es asesinado. De su investigación se encarga el inspector...

    Director: Mariusz Gawryś

    Género: Crimen

    Actores: Zbigniew Stryj

Iniciación (2021) PLACEBO Full HD 1080p Latino pelicula full hd, Iniciación (2021) PLACEBO Full HD 1080p Latino mega latino, Iniciación (2021) PLACEBO Full HD 1080p Latino 4k latino, Iniciación (2021) PLACEBO Full HD 1080p Latino pelicula completa, Iniciación (2021) PLACEBO Full HD 1080p Latino descargar gratis, descargar Iniciación (2021) PLACEBO Full HD 1080p Latino pelicula latino, Iniciación (2021) PLACEBO Full HD 1080p Latino 1 link mega, Iniciación (2021) PLACEBO Full HD 1080p Latino 1 link google drive, Iniciación (2021) PLACEBO Full HD 1080p Latino hd 1080p latino.
Comentarios 0