×

¿Problemas para descargar con Mozilla, EDGE? Deshabilita la opción "Abrir vinculos en una pestaña nueva" tal como lo muestra ésta imagen.

Inherit The Viper (2020) REMUX 1080p Latino

391 vistas

Información de Inherit The Viper (2020) REMUX 1080p Latino

Datos de la película

  • Calidad: Full 1080p
  • Audio: Español Latino AC3 5.1 iTUNES - Ingles DTS 5.1 BLURAY
  • Subtitulos: Español Latino PGS - Ingles PGS
  • Resolución: 1920x1080p
  • Formato: MKV
  • Codec: H.264
  • Encoder: CinefiloCool
  • Mediainfo: Clic para Mostrar Datos Ver
  • La Herencia de la Vibora (2020) REMUX 1080p Latino-CMHDD.mkv
    Format                      : Matroska
    Format version              : Version 4
    File size                   : 19.2 GiB
    Duration                    : 1 h 24 min
    Overall bit rate mode       : Variable
    Overall bit rate            : 32.7 Mb/s
    Movie name                  : Inherit the Viper (2019) CinemaniaHDD.Net
    Encoded date                : UTC 2020-03-12 21:14:10
    Writing application         : mkvmerge v42.0.0 ('Overtime') 64-bit
    Writing library             : libebml v1.3.10 + libmatroska v1.5.2
    Attachments                 : CINEMANIAHD.png

    Video
    ID                          : 1
    Format                      : AVC
    Format/Info                 : Advanced Video Codec
    Format profile              : High@L4.1
    Format settings             : CABAC / 4 Ref Frames
    Format settings, CABAC      : Yes
    Format settings, ReFrames   : 4 frames
    Format settings, GOP        : M=3, N=12
    Codec ID                    : V_MPEG4/ISO/AVC
    Duration                    : 1 h 24 min
    Bit rate mode               : Variable
    Bit rate                    : 28.9 Mb/s
    Maximum bit rate            : 37.0 Mb/s
    Width                       : 1 920 pixels
    Height                      : 1 080 pixels
    Display aspect ratio        : 16:9
    Frame rate mode             : Constant
    Frame rate                  : 23.976 (24000/1001) FPS
    Color space                 : YUV
    Chroma subsampling          : 4:2:0
    Bit depth                   : 8 bits
    Scan type                   : Progressive
    Bits/(Pixel*Frame)          : 0.581
    Stream size                 : 17.0 GiB (88%)
    Title                       : Full HD1080p [REMUX]
    Default                     : Yes
    Forced                      : Yes

    Audio #1
    ID                          : 2
    Format                      : AC-3
    Format/Info                 : Audio Coding 3
    Commercial name             : Dolby Digital
    Codec ID                    : A_AC3
    Duration                    : 1 h 24 min
    Bit rate mode               : Constant
    Bit rate                    : 384 kb/s
    Channel(s)                  : 6 channels
    Channel layout              : L R C LFE Ls Rs
    Sampling rate               : 48.0 kHz
    Frame rate                  : 31.250 FPS (1536 SPF)
    Bit depth                   : 16 bits
    Compression mode            : Lossy
    Stream size                 : 231 MiB (1%)
    Title                       : AC3_5.1_Web_Esp
    Language                    : Spanish
    Service kind                : Complete Main
    Default                     : Yes
    Forced                      : Yes

    Audio #2
    ID                          : 3
    Format                      : DTS XLL
    Format/Info                 : Digital Theater Systems
    Commercial name             : DTS-HD Master Audio
    Codec ID                    : A_DTS
    Duration                    : 1 h 24 min
    Bit rate mode               : Variable
    Bit rate                    : 3 385 kb/s
    Channel(s)                  : 6 channels
    Channel layout              : C L R Ls Rs LFE
    Sampling rate               : 48.0 kHz
    Frame rate                  : 93.750 FPS (512 SPF)
    Bit depth                   : 24 bits
    Compression mode            : Lossless
    Stream size                 : 1.99 GiB (10%)
    Title                       : DTS-HD_5.1_Bluray_Eng
    Language                    : English
    Default                     : No
    Forced                      : No

    Text #1
    ID                          : 4
    Format                      : PGS
    Muxing mode                 : zlib
    Codec ID                    : S_HDMV/PGS
    Codec ID/Info               : Picture based subtitle format used on BDs/HD-DVDs
    Duration                    : 1 h 23 min
    Bit rate                    : 19.2 kb/s
    Count of elements           : 1348
    Stream size                 : 11.4 MiB (0%)
    Title                       : Sub_Esp [PGS]
    Language                    : Spanish
    Default                     : No
    Forced                      : No

    Text #2
    ID                          : 5
    Format                      : PGS
    Muxing mode                 : zlib
    Codec ID                    : S_HDMV/PGS
    Codec ID/Info               : Picture based subtitle format used on BDs/HD-DVDs
    Duration                    : 1 h 23 min
    Bit rate                    : 23.9 kb/s
    Count of elements           : 1644
    Stream size                 : 14.3 MiB (0%)
    Title                       : Sub_Eng [PGS]
    Language                    : English
    Default                     : No
    Forced                      : No

    Text #3
    ID                          : 6
    Format                      : UTF-8
    Codec ID                    : S_TEXT/UTF8
    Codec ID/Info               : UTF-8 Plain Text
    Duration                    : 1 h 9 min
    Bit rate                    : 0 b/s
    Count of elements           : 5
    Stream size                 : 145 Bytes (0%)
    Title                       : Sub_Forzados
    Language                    : Spanish
    Default                     : Yes
    Forced                      : Yes

    Text #4
    ID                          : 7
    Format                      : UTF-8
    Codec ID                    : S_TEXT/UTF8
    Codec ID/Info               : UTF-8 Plain Text
    Duration                    : 1 h 16 min
    Bit rate                    : 36 b/s
    Count of elements           : 774
    Stream size                 : 20.7 KiB (0%)
    Title                       : Sub_Esp
    Language                    : Spanish
    Default                     : No
    Forced                      : No

    Menu
    00:00:00.000                : en:Chapter 01
    00:03:51.856                : en:Chapter 02
    00:09:06.837                : en:Chapter 03
    00:13:17.671                : en:Chapter 04
    00:19:57.321                : en:Chapter 05
    00:23:41.753                : en:Chapter 06
    00:27:08.501                : en:Chapter 07
    00:32:50.843                : en:Chapter 08
    00:36:10.251                : en:Chapter 09
    00:41:18.893                : en:Chapter 10
    00:45:55.252                : en:Chapter 11
    00:52:58.967                : en:Chapter 12
    00:58:29.214                : en:Chapter 13
    01:05:36.724                : en:Chapter 14
    01:13:27.945                : en:Chapter 15
    01:16:53.567                : en:Chapter 16

  • Peso: 19.2 GiB

Sinopsis

Descargar Inherit The Viper (2020) REMUX 1080p Latino. En una zona rural de Ohio, Kip y Josie, hermanos, se ven obligados a traficar con opioides para sobrevivir. Tras un negocio fallido, Kip trata de abandonar el mundo del narcotráfico, pero su decisión va a desencadenar una ola de violencia.

Ficha técnica

Video trailer de la película

Enlaces de descarga

Rip de Bluray

Descargar Inherit The Viper (2020) REMUX 1080p Latino




Aportes de DPeliculasHDmega la pass es:dpeliculashdmega.org Aportes de CinemaniaHD la pass es:cinemaniahdd.com
Guardado en : Crimen , Drama , Remux , Suspenso

Películas relacionadas

descargar Inherit The Viper (2020) REMUX 1080p Latino Full 1080p 1080p gratis, Inherit The Viper (2020) REMUX 1080p Latino Full 1080p mega 1 link, Inherit The Viper (2020) REMUX 1080p Latino Full 1080p pelicula completa, descargar Inherit The Viper (2020) REMUX 1080p Latino Full 1080p gratis en mega.

Inherit The Viper (2020) REMUX 1080p Latino pelicula full hd, Inherit The Viper (2020) REMUX 1080p Latino mega latino, Inherit The Viper (2020) REMUX 1080p Latino 4k latino, Inherit The Viper (2020) REMUX 1080p Latino pelicula completa, Inherit The Viper (2020) REMUX 1080p Latino descargar gratis, descargar Inherit The Viper (2020) REMUX 1080p Latino pelicula latino, Inherit The Viper (2020) REMUX 1080p Latino 1 link mega, Inherit The Viper (2020) REMUX 1080p Latino 1 link google drive, Inherit The Viper (2020) REMUX 1080p Latino hd 1080p latino.
Comentarios 0