Inglourious Basterds (2009) REMUX 4K HDR Latino – CMHDD

32 vistas
1 estrella2 estrellas3 estrellas4 estrellas5 estrellas (Ninguna valoración todavía)
Cargando...

Información de Inglourious Basterds (2009) REMUX 4K HDR Latino – CMHDD

Datos de la película

  • Calidad: 4K HDR
  • Audio: Español Latino DTS 5.1 BLURAY - Ingles DTS 5.1 BLURAY
  • Subtitulos: Español Latino PGS
  • Resolución: 3840x2160p
  • Formato: MKV
  • Codec: H.264
  • Encoder: Dracarys
  • Mediainfo: Clic para Mostrar Datos Ver
  • Format                      : Matroska
    Format version              : Version 4
    File size                   : 57.4 GiB
    Duration                    : 2 h 32 min
    Overall bit rate mode       : Variable
    Overall bit rate            : 53.7 Mb/s
    Movie name                  : Inglourious Basterds (2009) REMUX 4K HDR Latino - CMHDD
    Encoded date                : UTC 2021-10-19 13:46:14
    Writing application         : mkvmerge v17.0.0 ('Be Ur Friend') 64-bit
    Writing library             : libebml v1.3.5 + libmatroska v1.4.8

    Video
    ID                          : 1
    Format                      : HEVC
    Format/Info                 : High Efficiency Video Coding
    Format profile              : Main 10@L5.1@High
    HDR format                  : SMPTE ST 2094 App 4, Version 1, HDR10+ Profile B compatible
    Codec ID                    : V_MPEGH/ISO/HEVC
    Duration                    : 2 h 32 min
    Bit rate                    : 49.4 Mb/s
    Width                       : 3 840 pixels
    Height                      : 2 160 pixels
    Display aspect ratio        : 16:9
    Frame rate mode             : Constant
    Frame rate                  : 23.976 (24000/1001) FPS
    Color space                 : YUV
    Chroma subsampling          : 4:2:0 (Type 2)
    Bit depth                   : 10 bits
    Bits/(Pixel*Frame)          : 0.248
    Stream size                 : 52.8 GiB (92%)
    Writing library             : ATEME Titan File 3.9.6 (4.9.6.2)        
    Default                     : Yes
    Forced                      : No
    Color range                 : Limited
    Color primaries             : BT.2020
    Transfer characteristics    : PQ
    Matrix coefficients         : BT.2020 non-constant
    Mastering display color pri : Display P3
    Mastering display luminance : min: 0.0050 cd/m2, max: 1000 cd/m2
    Maximum Content Light Level : 970 cd/m2
    Maximum Frame-Average Light : 478 cd/m2

    Audio #1
    ID                          : 2
    Format                      : DTS XLL
    Format/Info                 : Digital Theater Systems
    Commercial name             : DTS-HD Master Audio
    Codec ID                    : A_DTS
    Duration                    : 2 h 32 min
    Bit rate mode               : Variable
    Bit rate                    : 3 517 kb/s
    Channel(s)                  : 6 channels
    Channel layout              : C L R Ls Rs LFE
    Sampling rate               : 48.0 kHz
    Frame rate                  : 93.750 FPS (512 SPF)
    Bit depth                   : 24 bits
    Compression mode            : Lossless
    Stream size                 : 3.76 GiB (7%)
    Language                    : English
    Default                     : No
    Forced                      : No

    Audio #2
    ID                          : 3
    Format                      : DTS
    Format/Info                 : Digital Theater Systems
    Codec ID                    : A_DTS
    Duration                    : 2 h 32 min
    Bit rate mode               : Constant
    Bit rate                    : 768 kb/s
    Channel(s)                  : 6 channels
    Channel layout              : C L R Ls Rs LFE
    Sampling rate               : 48.0 kHz
    Frame rate                  : 93.750 FPS (512 SPF)
    Bit depth                   : 24 bits
    Compression mode            : Lossy
    Stream size                 : 840 MiB (1%)
    Language                    : Spanish
    Default                     : Yes
    Forced                      : No

    Text #1
    ID                          : 4
    Format                      : PGS
    Muxing mode                 : zlib
    Codec ID                    : S_HDMV/PGS
    Codec ID/Info               : Picture based subtitle format used on BDs/HD-DVDs
    Duration                    : 2 h 27 min
    Bit rate                    : 33.1 kb/s
    Count of elements           : 3574
    Stream size                 : 34.9 MiB (0%)
    Language                    : Spanish
    Default                     : No
    Forced                      : No

    Text #2
    ID                          : 5
    Format                      : PGS
    Muxing mode                 : zlib
    Codec ID                    : S_HDMV/PGS
    Codec ID/Info               : Picture based subtitle format used on BDs/HD-DVDs
    Duration                    : 2 h 23 min
    Bit rate                    : 16.8 kb/s
    Count of elements           : 1896
    Stream size                 : 17.3 MiB (0%)
    Language                    : Spanish
    Default                     : Yes
    Forced                      : No

    Menu
    00:00:00.000                : en:Chapter 1
    00:01:51.277                : en:Chapter 2
    00:07:07.051                : en:Chapter 3
    00:21:21.488                : en:Chapter 4
    00:24:13.493                : en:Chapter 5
    00:28:16.569                : en:Chapter 6
    00:30:19.609                : en:Chapter 7
    00:37:57.775                : en:Chapter 8
    00:41:48.589                : en:Chapter 9
    00:48:29.072                : en:Chapter 10
    00:53:54.231                : en:Chapter 11
    01:00:51.105                : en:Chapter 12
    01:04:06.008                : en:Chapter 13
    01:09:25.369                : en:Chapter 14
    01:12:17.833                : en:Chapter 15
    01:19:26.595                : en:Chapter 16
    01:32:55.444                : en:Chapter 17
    01:37:02.900                : en:Chapter 18
    01:43:52.142                : en:Chapter 19
    01:45:38.707                : en:Chapter 20
    01:50:31.291                : en:Chapter 21
    01:57:35.757                : en:Chapter 22
    02:03:39.120                : en:Chapter 23
    02:10:30.739                : en:Chapter 24
    02:16:41.526                : en:Chapter 25
    02:23:11.416                : en:Chapter 26
    02:25:47.947                : en:Chapter 27
    02:29:31.629                : en:Chapter 28

  • Peso: 57.4 GiB

Sinopsis

Segunda Guerra Mundial. Durante la ocupación de Francia por los alemanes, Shosanna Dreyfus presencia la ejecución de su familia por orden del coronel nazi Hans Landa. Ella consigue huir a París, donde adopta una nueva identidad como propietaria de un cine. En otro lugar de Europa, el teniente Aldo Raine adiestra a un grupo de soldados judíos «Los bastardos» para atacar objetivos concretos. Los hombres de Raine y una actriz alemana, que trabaja para los aliados, deben llevar a cabo una misión que hará caer a los jefes del Tercer Reich. El destino quiere que todos se encuentren bajo la marquesina de un cine donde Shosanna espera para vengarse.

Ficha técnica

Video trailer de la película

Enlaces de descarga

Rip de Bluray

Descargar Inglourious Basterds (2009) REMUX 4K HDR Latino – CMHDD


Aportes de DPeliculasHDmega la pass es:dpeliculashdmega.org Aportes de CinemaniaHD la pass es:cinemaniahdd.com
Guardado en : Acción , Bélica , Drama , Suspenso

Películas relacionadas

Inglourious Basterds (2009) REMUX 4K HDR Latino – CMHDD pelicula full hd, Inglourious Basterds (2009) REMUX 4K HDR Latino – CMHDD mega latino, Inglourious Basterds (2009) REMUX 4K HDR Latino – CMHDD 4k latino, Inglourious Basterds (2009) REMUX 4K HDR Latino – CMHDD pelicula completa, Inglourious Basterds (2009) REMUX 4K HDR Latino – CMHDD descargar gratis, descargar Inglourious Basterds (2009) REMUX 4K HDR Latino – CMHDD pelicula latino, Inglourious Basterds (2009) REMUX 4K HDR Latino – CMHDD 1 link mega, Inglourious Basterds (2009) REMUX 4K HDR Latino – CMHDD 1 link google drive, Inglourious Basterds (2009) REMUX 4K HDR Latino – CMHDD hd 1080p latino.