×

¿Problemas para descargar con Mozilla, EDGE? Deshabilita la opción "Abrir vinculos en una pestaña nueva" tal como lo muestra ésta imagen.

Infiniti (2022) Primera Temporada WEB-DL 1080p Latino

85 vistas

Información de Infiniti (2022) Primera Temporada WEB-DL 1080p Latino

Datos de la película

  • Calidad: 1080p
  • Audio: Español Latino AC3 2.0 WEB-DL - Ingles AC3 5.1 WEB-DL
  • Subtitulos: Español Latino SRT
  • Resolución: 1920x1080
  • Formato: MKV
  • Codec: H.264
  • Encoder: cinemaniahdd
  • Mediainfo: Clic para Mostrar Datos Ver
  • Infiniti T01E01 WEB-DL 1080p Latino [CNMNHDD].mkv
    Format                      : Matroska
    Format version              : Version 4
    File size                   : 2.22 GiB
    Duration                    : 57 min 16 s
    Overall bit rate            : 5 544 kb/s
    Movie name                  : Infiniti S01E01 - The Tower of Silence [1080p] - CinemaniaHDD.Net
    Encoded date                : UTC 2022-08-22 04:42:40
    Writing application         : mkvmerge v56.1.0 ('My Friend') 64-bit
    Writing library             : libebml v1.4.2 + libmatroska v1.6.4

    Video
    ID                          : 1
    Format                      : AVC
    Format/Info                 : Advanced Video Codec
    Format profile              : High@L4.1
    Format settings             : CABAC / 2 Ref Frames
    Format settings, CABAC      : Yes
    Format settings, Reference  : 2 frames
    Format settings, GOP        : M=1, N=50
    Codec ID                    : V_MPEG4/ISO/AVC
    Duration                    : 57 min 16 s
    Bit rate mode               : Constant
    Bit rate                    : 4 500 kb/s
    Width                       : 1 920 pixels
    Height                      : 1 080 pixels
    Display aspect ratio        : 16:9
    Frame rate mode             : Constant
    Frame rate                  : 25.000 FPS
    Color space                 : YUV
    Chroma subsampling          : 4:2:0
    Bit depth                   : 8 bits
    Scan type                   : Progressive
    Bits/(Pixel*Frame)          : 0.087
    Stream size                 : 1.76 GiB (79%)
    Title                       : CinemaniaHDD
    Default                     : Yes
    Forced                      : No
    Color range                 : Limited
    Color primaries             : BT.709
    Transfer characteristics    : BT.709
    Matrix coefficients         : BT.709

    Audio #1
    ID                          : 2
    Format                      : AC-3
    Format/Info                 : Audio Coding 3
    Commercial name             : Dolby Digital
    Codec ID                    : A_AC3
    Duration                    : 57 min 15 s
    Bit rate mode               : Constant
    Bit rate                    : 384 kb/s
    Channel(s)                  : 2 channels
    Channel layout              : L R
    Sampling rate               : 48.0 kHz
    Frame rate                  : 31.250 FPS (1536 SPF)
    Compression mode            : Lossy
    Stream size                 : 157 MiB (7%)
    Title                       : Español latino [CinemaniaHDD]
    Language                    : Spanish
    Service kind                : Complete Main
    Default                     : Yes
    Forced                      : No

    Audio #2
    ID                          : 3
    Format                      : E-AC-3
    Format/Info                 : Enhanced AC-3
    Commercial name             : Dolby Digital Plus
    Codec ID                    : A_EAC3
    Duration                    : 57 min 15 s
    Bit rate mode               : Constant
    Bit rate                    : 384 kb/s
    Channel(s)                  : 6 channels
    Channel layout              : L R C LFE Ls Rs
    Sampling rate               : 48.0 kHz
    Frame rate                  : 31.250 FPS (1536 SPF)
    Compression mode            : Lossy
    Stream size                 : 157 MiB (7%)
    Title                       : Francés [CinemaniaHDD]
    Language                    : French
    Service kind                : Complete Main
    Default                     : No
    Forced                      : No

    Audio #3
    ID                          : 4
    Format                      : E-AC-3
    Format/Info                 : Enhanced AC-3
    Commercial name             : Dolby Digital Plus
    Codec ID                    : A_EAC3
    Duration                    : 57 min 15 s
    Bit rate mode               : Constant
    Bit rate                    : 384 kb/s
    Channel(s)                  : 6 channels
    Channel layout              : L R C LFE Ls Rs
    Sampling rate               : 48.0 kHz
    Frame rate                  : 31.250 FPS (1536 SPF)
    Compression mode            : Lossy
    Stream size                 : 157 MiB (7%)
    Title                       : Inglés [CinemaniaHDD]
    Language                    : English
    Service kind                : Complete Main
    Default                     : No
    Forced                      : No

    Text #1
    ID                          : 5
    Format                      : UTF-8
    Codec ID                    : S_TEXT/UTF8
    Codec ID/Info               : UTF-8 Plain Text
    Duration                    : 54 min 38 s
    Bit rate                    : 35 b/s
    Count of elements           : 563
    Stream size                 : 14.4 KiB (0%)
    Title                       : Español latino [CinemaniaHDD]
    Language                    : Spanish
    Default                     : No
    Forced                      : No

    Text #2
    ID                          : 6
    Format                      : UTF-8
    Codec ID                    : S_TEXT/UTF8
    Codec ID/Info               : UTF-8 Plain Text
    Duration                    : 55 min 40 s
    Bit rate                    : 37 b/s
    Count of elements           : 566
    Stream size                 : 15.2 KiB (0%)
    Title                       : Francés [CinemaniaHDD]
    Language                    : French
    Default                     : No
    Forced                      : No

     

  • Peso: 2.22 GiB Aprox ---- 13 GiB in 10 Chapters.

Sinopsis

La ISS, la Estación Espacial Internacional se ha quedado en silencio. La tripulación está en peligro. Simultáneamente, se encuentra un cuerpo decapitado y encerado en un techo en Kazajistán. La identificación positiva no deja lugar a dudas: el cuerpo pertenece a un astronauta estadounidense que se encuentra actualmente en una misión en la ISS. Un astronauta francés, despedido del programa espacial, y un policía kazajo, repudiado por su jerarquía de rango, se propusieron resolver esta misteriosa paradoj

Ficha técnica

Video trailer de la película

Enlaces de descarga

Rip de Bluray

Descargar Infiniti (2022) Primera Temporada WEB-DL 1080p Latino




Aportes de DPeliculasHDmega la pass es:dpeliculashdmega.org Aportes de CinemaniaHD la pass es:cinemaniahdd.com
Guardado en : Drama , Misterio , Sci-Fi & Fantasy , Series

Películas relacionadas

descargar Infiniti (2022) Primera Temporada WEB-DL 1080p Latino 1080p 1080p gratis, Infiniti (2022) Primera Temporada WEB-DL 1080p Latino 1080p mega 1 link, Infiniti (2022) Primera Temporada WEB-DL 1080p Latino 1080p serie completa, descargar Infiniti (2022) Primera Temporada WEB-DL 1080p Latino 1080p gratis en mega.

Infiniti (2022) Primera Temporada WEB-DL 1080p Latino pelicula full hd, Infiniti (2022) Primera Temporada WEB-DL 1080p Latino mega latino, Infiniti (2022) Primera Temporada WEB-DL 1080p Latino 4k latino, Infiniti (2022) Primera Temporada WEB-DL 1080p Latino pelicula completa, Infiniti (2022) Primera Temporada WEB-DL 1080p Latino descargar gratis, descargar Infiniti (2022) Primera Temporada WEB-DL 1080p Latino pelicula latino, Infiniti (2022) Primera Temporada WEB-DL 1080p Latino 1 link mega, Infiniti (2022) Primera Temporada WEB-DL 1080p Latino 1 link google drive, Infiniti (2022) Primera Temporada WEB-DL 1080p Latino hd 1080p latino.
Comentarios 5
  • Pela - 21 septiembre, 2022

    Buenas tardes. El subtítulo en español latino está desfasado, no así el francés. ¿Habrá forma de descargarlo aparte?

    • CinemaniaHDD - 26 septiembre, 2022

      el de que capitulo?

  • Joseee_et - 08 septiembre, 2022

    Muchas gracias, me está encantado esta serie!

  • Marcelo - 05 septiembre, 2022

    Buenísimo 👍

  • rogelio - 05 septiembre, 2022

    excelente pagina para descargar peliculas