×

¿Problemas para descargar con Mozilla, EDGE? Deshabilita la opción "Abrir vinculos en una pestaña nueva" tal como lo muestra ésta imagen.

Infiesto (2023) NF WEB-DL 1080p Castellano

298 vistas

Información de Infiesto (2023) NF WEB-DL 1080p Castellano

Datos de la película

  • Calidad: WEBDL
  • Audio: Español España AC3 5.1 Netflix
  • Subtitulos: No
  • Resolución: 1920x1080p
  • Formato: MKV
  • Codec: H.264
  • Encoder: Melkor
  • Mediainfo: Clic para Mostrar Datos Ver
  • Infiesto (2023) NF WebDL 1080p Cast.mkv Format                      : Matroska Format version              : Version 4 File size                   : 5.80 GiB Duration                    : 1 h 36 min Overall bit rate mode       : Variable Overall bit rate            : 8 595 kb/s Movie name                  : Infiesto (2023) CinemaniaHDD.Net Encoded date                : UTC 2023-02-03 09:12:35 Writing application         : mkvmerge v56.1.0 ('My Friend') 64-bit Writing library             : libebml v1.4.2 + libmatroska v1.6.4 Attachments                 : CINEMANIAHD.png / CINEMANIAHD.png Video ID                          : 1 Format                      : AVC Format/Info                 : Advanced Video Codec Format profile              : High@L4 Format settings             : CABAC / 4 Ref Frames Format settings, CABAC      : Yes Format settings, Reference  : 4 frames Codec ID                    : V_MPEG4/ISO/AVC Duration                    : 1 h 36 min Bit rate mode               : Variable Bit rate                    : 7 314 kb/s Maximum bit rate            : 20.0 Mb/s Width                       : 1 920 pixels Height                      : 1 080 pixels Display aspect ratio        : 16:9 Frame rate mode             : Constant Frame rate                  : 24.000 FPS Color space                 : YUV Chroma subsampling          : 4:2:0 Bit depth                   : 8 bits Scan type                   : Progressive Bits/(Pixel*Frame)          : 0.147 Stream size                 : 4.93 GiB (85%) Title                       : WEB HD1080p [CinemaniaHDD] Writing library             : x264 core 148 r2727 7d026e8 Encoding settings           : cabac=1 / ref=4 / deblock=1:0:0 / analyse=0x3:0x111 / me=umh / subme=10 / psy=1 / psy_rd=1.00:0.00 / mixed_ref=1 / me_range=120 / chroma_me=1 / trellis=2 / 8x8dct=1 / cqm=0 / deadzone=21,11 / fast_pskip=1 / chroma_qp_offset=-2 / threads=8 / lookahead_threads=2 / sliced_threads=0 / nr=0 / decimate=1 / interlaced=0 / bluray_compat=0 / stitchable=1 / constrained_intra=0 / bframes=16 / b_pyramid=2 / b_adapt=2 / b_bias=0 / direct=3 / weightb=1 / open_gop=0 / weightp=2 / keyint=240 / keyint_min=121 / scenecut=0 / intra_refresh=0 / rc_lookahead=240 / rc=crf / mbtree=1 / crf=16.0 / qcomp=0.50 / qpmin=6 / qpmax=51 / qpstep=4 / vbv_maxrate=20000 / vbv_bufsize=25000 / crf_max=0.0 / nal_hrd=vbr / filler=0 / ip_ratio=1.40 / aq=1:0.80 Language                    : Spanish Default                     : Yes Forced                      : Yes Audio #1 ID                          : 2 Format                      : AC-3 Format/Info                 : Audio Coding 3 Commercial name             : Dolby Digital Codec ID                    : A_AC3 Duration                    : 1 h 36 min Bit rate mode               : Constant Bit rate                    : 640 kb/s Channel(s)                  : 6 channels Channel layout              : L R C LFE Ls Rs Sampling rate               : 48.0 kHz Frame rate                  : 31.250 FPS (1536 SPF) Compression mode            : Lossy Stream size                 : 442 MiB (7%) Title                       : Español Castellano [CinemaniaHDD] Language                    : Spanish Service kind                : Complete Main Default                     : Yes Forced                      : Yes Audio #2 ID                          : 3 Format                      : E-AC-3 Format/Info                 : Enhanced AC-3 Commercial name             : Dolby Digital Plus Codec ID                    : A_EAC3 Duration                    : 1 h 36 min Bit rate mode               : Constant Bit rate                    : 640 kb/s Channel(s)                  : 6 channels Channel layout              : L R C LFE Ls Rs Sampling rate               : 48.0 kHz Frame rate                  : 31.250 FPS (1536 SPF) Compression mode            : Lossy Stream size                 : 442 MiB (7%) Title                       : Español Castellano EAC3 [CinemaniaHDD] Language                    : Spanish Service kind                : Complete Main Default                     : No Forced                      : No
  • Peso: 5.80 GiB

Sinopsis

Descargar Infiesto (2023) NF WEB-DL 1080p Castellano. Mientras el coronavirus trastoca sus vidas, dos inspectores buscan a los responsables de un secuestro que parece formar parte de una trama aún más siniestra.

Ficha técnica

Video trailer de la película

Enlaces de descarga

Rip de Bluray

Descargar Infiesto (2023) NF WEB-DL 1080p Castellano




Aportes de DPeliculasHDmega la pass es:dpeliculashdmega.org Aportes de CinemaniaHD la pass es:cinemaniahdd.com Aportes recientes:cinemaniahdd.net
Guardado en : Crimen , Drama , Netflix , Suspenso

Películas relacionadas

descargar Infiesto (2023) NF WEB-DL 1080p Castellano WEBDL 1080p gratis, Infiesto (2023) NF WEB-DL 1080p Castellano WEBDL mega 1 link, Infiesto (2023) NF WEB-DL 1080p Castellano WEBDL pelicula completa, descargar Infiesto (2023) NF WEB-DL 1080p Castellano WEBDL gratis en mega.

Infiesto (2023) NF WEB-DL 1080p Castellano pelicula full hd, Infiesto (2023) NF WEB-DL 1080p Castellano mega latino, Infiesto (2023) NF WEB-DL 1080p Castellano 4k latino, Infiesto (2023) NF WEB-DL 1080p Castellano pelicula completa, Infiesto (2023) NF WEB-DL 1080p Castellano descargar gratis, descargar Infiesto (2023) NF WEB-DL 1080p Castellano pelicula latino, Infiesto (2023) NF WEB-DL 1080p Castellano 1 link mega, Infiesto (2023) NF WEB-DL 1080p Castellano 1 link google drive, Infiesto (2023) NF WEB-DL 1080p Castellano hd 1080p latino.
Comentarios 0