×

¿Problemas para descargar con Mozilla, EDGE? Deshabilita la opción "Abrir vinculos en una pestaña nueva" tal como lo muestra ésta imagen.

Infierno en la Frontera (2019) REMUX 1080p Latino

432 vistas

Información de Infierno en la Frontera (2019) REMUX 1080p Latino

Datos de la película

  • Calidad: Full 1080p
  • Audio: Español Latino AC3 2.0 iTUNES - Ingles DTS 5.1 BURAY
  • Subtitulos: Español Latino PGS - Ingles PGS
  • Resolución: 1920x1080p
  • Formato: MKV
  • Codec: H.264
  • Encoder: CinefiloCool
  • Mediainfo: Clic para Mostrar Datos Ver
  • Infierno en la Frontera (2019) REMUX 1080p Latino-CMHDD.mkv
    Format                      : Matroska
    Format version              : Version 4
    File size                   : 19.1 GiB
    Duration                    : 1 h 50 min
    Overall bit rate mode       : Variable
    Overall bit rate            : 24.9 Mb/s
    Movie name                  : CinemaniaHDD.Net
    Encoded date                : UTC 2020-02-27 00:55:36
    Writing application         : mkvmerge v42.0.0 ('Overtime') 64-bit
    Writing library             : libebml v1.3.10 + libmatroska v1.5.2
    Attachments                 : CINEMANIAHD.png

    Video
    ID                          : 1
    Format                      : AVC
    Format/Info                 : Advanced Video Codec
    Format profile              : High@L4.1
    Format settings             : CABAC / 4 Ref Frames
    Format settings, CABAC      : Yes
    Format settings, ReFrames   : 4 frames
    Codec ID                    : V_MPEG4/ISO/AVC
    Duration                    : 1 h 50 min
    Bit rate mode               : Variable
    Bit rate                    : 20.7 Mb/s
    Maximum bit rate            : 37.0 Mb/s
    Width                       : 1 920 pixels
    Height                      : 1 080 pixels
    Display aspect ratio        : 16:9
    Frame rate mode             : Constant
    Frame rate                  : 23.976 (24000/1001) FPS
    Color space                 : YUV
    Chroma subsampling          : 4:2:0
    Bit depth                   : 8 bits
    Scan type                   : Progressive
    Bits/(Pixel*Frame)          : 0.417
    Stream size                 : 15.9 GiB (83%)
    Title                       : Full HD1080p [REMUX]
    Default                     : Yes
    Forced                      : Yes

    Audio #1
    ID                          : 2
    Format                      : AC-3
    Format/Info                 : Audio Coding 3
    Commercial name             : Dolby Digital
    Codec ID                    : A_AC3
    Duration                    : 1 h 50 min
    Bit rate mode               : Constant
    Bit rate                    : 256 kb/s
    Channel(s)                  : 2 channels
    Channel layout              : L R
    Sampling rate               : 48.0 kHz
    Frame rate                  : 31.250 FPS (1536 SPF)
    Bit depth                   : 16 bits
    Compression mode            : Lossy
    Stream size                 : 202 MiB (1%)
    Title                       : AC3_2.0_Web_Esp
    Language                    : Spanish
    Service kind                : Complete Main
    Default                     : Yes
    Forced                      : Yes

    Audio #2
    ID                          : 3
    Format                      : DTS XLL
    Format/Info                 : Digital Theater Systems
    Commercial name             : DTS-HD Master Audio
    Codec ID                    : A_DTS
    Duration                    : 1 h 50 min
    Bit rate mode               : Variable
    Bit rate                    : 3 867 kb/s
    Channel(s)                  : 6 channels
    Channel layout              : C L R Ls Rs LFE
    Sampling rate               : 48.0 kHz
    Frame rate                  : 93.750 FPS (512 SPF)
    Bit depth                   : 24 bits
    Compression mode            : Lossless
    Stream size                 : 2.97 GiB (16%)
    Title                       : DTS-HD_5.1_Bluray_Eng
    Language                    : English
    Default                     : No
    Forced                      : No

    Text #1
    ID                          : 4
    Format                      : PGS
    Muxing mode                 : zlib
    Codec ID                    : S_HDMV/PGS
    Codec ID/Info               : Picture based subtitle format used on BDs/HD-DVDs
    Duration                    : 1 h 45 min
    Bit rate                    : 30.1 kb/s
    Count of elements           : 2454
    Stream size                 : 22.6 MiB (0%)
    Title                       : Sub_Esp [PGS]
    Language                    : Spanish
    Default                     : No
    Forced                      : No

    Text #2
    ID                          : 5
    Format                      : PGS
    Muxing mode                 : zlib
    Codec ID                    : S_HDMV/PGS
    Codec ID/Info               : Picture based subtitle format used on BDs/HD-DVDs
    Duration                    : 1 h 48 min
    Bit rate                    : 31.4 kb/s
    Count of elements           : 2842
    Stream size                 : 24.4 MiB (0%)
    Title                       : Sub_Eng [PGS]
    Language                    : English
    Default                     : No
    Forced                      : No

    Text #3
    ID                          : 6
    Format                      : UTF-8
    Codec ID                    : S_TEXT/UTF8
    Codec ID/Info               : UTF-8 Plain Text
    Duration                    : 1 h 44 min
    Bit rate                    : 0 b/s
    Count of elements           : 21
    Stream size                 : 714 Bytes (0%)
    Title                       : Sub_Forzados
    Language                    : Spanish
    Default                     : Yes
    Forced                      : Yes

    Text #4
    ID                          : 7
    Format                      : UTF-8
    Codec ID                    : S_TEXT/UTF8
    Codec ID/Info               : UTF-8 Plain Text
    Duration                    : 1 h 45 min
    Bit rate                    : 48 b/s
    Count of elements           : 1227
    Stream size                 : 37.4 KiB (0%)
    Title                       : Sub_Esp
    Language                    : Spanish
    Default                     : No
    Forced                      : No

    Menu
    00:00:00.000                : en:Chapter 01
    00:08:13.493                : en:Chapter 02
    00:15:53.160                : en:Chapter 03
    00:23:35.747                : en:Chapter 04
    00:29:46.493                : en:Chapter 05
    00:37:18.569                : en:Chapter 06
    00:45:01.365                : en:Chapter 07
    00:51:09.816                : en:Chapter 08
    00:56:15.789                : en:Chapter 09
    01:03:42.777                : en:Chapter 10
    01:09:19.321                : en:Chapter 11
    01:15:04.917                : en:Chapter 12
    01:20:21.650                : en:Chapter 13
    01:26:46.201                : en:Chapter 14
    01:34:04.805                : en:Chapter 15
    01:41:10.189                : en:Chapter 16

  • Peso: 19.1 GiB

Sinopsis

Descargar Infierno en la Frontera (2019) REMUX 1080p Latino. Este western épico y lleno de acción cuenta la increíble historia real de Bass Reeves, el primer mariscal negro del Salvaje Oeste. Habiendo escapado de la esclavitud después de la Guerra Civil, llega a Arkansas buscando trabajo con la ley. Para demostrar su valía, debe perseguir a un forajido mortal con la ayuda de un oficial canoso. Mientras persigue al criminal más profundamente en la Nación Cherokee, Reeves no solo debe esquivar las balas, sino también una severa discriminación con la esperanza de ganar su estrella, y cimentar su lugar como una leyenda del vaquero.

Ficha técnica

  • Titulo original: Hell on the Border
  • Fecha de lanzamiento: 13-12-2019 (United States of America)
  • Director: Wes Miller
  • Género: Aventura, Remux, Western

Video trailer de la película

Enlaces de descarga

Rip de Bluray

Descargar Infierno en la Frontera (2019) REMUX 1080p Latino




Aportes de DPeliculasHDmega la pass es:dpeliculashdmega.org Aportes de CinemaniaHD la pass es:cinemaniahdd.com
Guardado en : Aventura , Remux , Western

Películas relacionadas

  • Wire Room (2022) REMUX 1080p Latino

    Wire Room (2022) REMUX 1080p Latino

    2022
    Wire Room (2022) REMUX 1080p Latino

    1h 37m 2022

    Descargar Wire Room (2022) REMUX 1080p Latino. Mientras está de servicio en la sala de cables, un agente...

    Director: Matt Eskandari

    Género: Acción

    Actores: Texas Battle

  • Alarido (2022) REMUX 1080p Latino

    Alarido (2022) REMUX 1080p Latino

    2022
    Alarido (2022) REMUX 1080p Latino

    1h 29m 2022

    Descargar Alarido (2022) REMUX 1080p Latino. Una joven madre soltera es cautiva junto con sus dos hijos...

    Director: D.J. Caruso

    Género: Remux

    Actores: Vincent Gallo

  • El Cuartel Secreto (2022) WEB-DL 4K UHD HDR Latino

    El Cuartel Secreto (2022) WEB-DL 4K UHD HDR Latino

    2022
    El Cuartel Secreto (2022) WEB-DL 4K UHD HDR Latino

    1h 44m 2022

    Descargar El Cuartel Secreto (2022) WEB-DL 4K UHD HDR Latino. Mientras pasan el rato después de la escuela,...

    Director: Henry Joost

    Género: 4K HDR

    Actores: Zeb Slone

descargar Infierno en la Frontera (2019) REMUX 1080p Latino Full 1080p 1080p gratis, Infierno en la Frontera (2019) REMUX 1080p Latino Full 1080p mega 1 link, Infierno en la Frontera (2019) REMUX 1080p Latino Full 1080p pelicula completa, descargar Infierno en la Frontera (2019) REMUX 1080p Latino Full 1080p gratis en mega.

Infierno en la Frontera (2019) REMUX 1080p Latino pelicula full hd, Infierno en la Frontera (2019) REMUX 1080p Latino mega latino, Infierno en la Frontera (2019) REMUX 1080p Latino 4k latino, Infierno en la Frontera (2019) REMUX 1080p Latino pelicula completa, Infierno en la Frontera (2019) REMUX 1080p Latino descargar gratis, descargar Infierno en la Frontera (2019) REMUX 1080p Latino pelicula latino, Infierno en la Frontera (2019) REMUX 1080p Latino 1 link mega, Infierno en la Frontera (2019) REMUX 1080p Latino 1 link google drive, Infierno en la Frontera (2019) REMUX 1080p Latino hd 1080p latino.
Comentarios 0