Infierno de Hielo (2019) Web-DL 1080p Latino

62 vistas
1 estrella2 estrellas3 estrellas4 estrellas5 estrellas (Ninguna valoración todavía)
Cargando...

Información de Infierno de Hielo (2019) Web-DL 1080p Latino

Datos de la película

  • Calidad: WEBDL
  • Audio: Se especifica abajo de la Sinopsis
  • Subtitulos: Español Latino SRT- FORZADOS SRT
  • Resolución: 1920x858p
  • Formato: MKV
  • Codec: H.264
  • Encoder: CinemaniaHD
  • Mediainfo: Clic para Mostrar Datos Ver
  • Infierno en Hielo (2019) Web-DL 1080p Latino.mkv
    Format                      : Matroska
    Format version              : Version 4
    File size                   : 3.34 GiB
    Duration                    : 1 h 25 min
    Overall bit rate            : 5 580 kb/s
    Movie name                  : Preboj (2019) CinemaniaHDD.Net
    Encoded date                : UTC 2021-05-21 07:23:31
    Writing application         : mkvmerge v56.1.0 ('My Friend') 64-bit
    Writing library             : libebml v1.4.2 + libmatroska v1.6.4
    Attachments                 : CINEMANIAHD.png

    Video
    ID                          : 1
    Format                      : AVC
    Format/Info                 : Advanced Video Codec
    Format profile              : High@L4
    Format settings             : CABAC / 5 Ref Frames
    Format settings, CABAC      : Yes
    Format settings, Reference  : 5 frames
    Codec ID                    : V_MPEG4/ISO/AVC
    Duration                    : 1 h 25 min
    Bit rate                    : 4 810 kb/s
    Width                       : 1 920 pixels
    Height                      : 858 pixels
    Display aspect ratio        : 2.25:1
    Frame rate mode             : Constant
    Frame rate                  : 25.000 FPS
    Color space                 : YUV
    Chroma subsampling          : 4:2:0
    Bit depth                   : 8 bits
    Scan type                   : Progressive
    Bits/(Pixel*Frame)          : 0.117
    Stream size                 : 2.88 GiB (86%)
    Title                       : WEB HD1080p [CinemaniaHDD]
    Default                     : Yes
    Forced                      : No
    Color range                 : Limited
    Color primaries             : BT.709
    Transfer characteristics    : BT.709
    Matrix coefficients         : BT.709

    Audio #1
    ID                          : 2
    Format                      : AC-3
    Format/Info                 : Audio Coding 3
    Commercial name             : Dolby Digital
    Codec ID                    : A_AC3
    Duration                    : 1 h 25 min
    Bit rate mode               : Constant
    Bit rate                    : 384 kb/s
    Channel(s)                  : 6 channels
    Channel layout              : L R C LFE Ls Rs
    Sampling rate               : 48.0 kHz
    Frame rate                  : 31.250 FPS (1536 SPF)
    Compression mode            : Lossy
    Delay relative to video     : -40 ms
    Stream size                 : 235 MiB (7%)
    Title                       : Español Latino [CinemaniaHDD]
    Language                    : Spanish
    Service kind                : Complete Main
    Default                     : Yes
    Forced                      : Yes

    Audio #2
    ID                          : 3
    Format                      : AC-3
    Format/Info                 : Audio Coding 3
    Commercial name             : Dolby Digital
    Codec ID                    : A_AC3
    Duration                    : 1 h 25 min
    Bit rate mode               : Constant
    Bit rate                    : 384 kb/s
    Channel(s)                  : 6 channels
    Channel layout              : L R C LFE Ls Rs
    Sampling rate               : 48.0 kHz
    Frame rate                  : 31.250 FPS (1536 SPF)
    Compression mode            : Lossy
    Delay relative to video     : -40 ms
    Stream size                 : 235 MiB (7%)
    Title                       : Esloveno [CinemaniaHDD]
    Language                    : Slovenian
    Service kind                : Complete Main
    Default                     : No
    Forced                      : No

    Text #1
    ID                          : 4
    Format                      : UTF-8
    Codec ID                    : S_TEXT/UTF8
    Codec ID/Info               : UTF-8 Plain Text
    Duration                    : 1 h 22 min
    Bit rate                    : 3 b/s
    Count of elements           : 43
    Stream size                 : 2.12 KiB (0%)
    Title                       : Forzados-SRT [CinemaniaHDD]
    Language                    : Spanish
    Default                     : Yes
    Forced                      : Yes

    Text #2
    ID                          : 5
    Format                      : UTF-8
    Codec ID                    : S_TEXT/UTF8
    Codec ID/Info               : UTF-8 Plain Text
    Duration                    : 1 h 22 min
    Bit rate                    : 32 b/s
    Count of elements           : 584
    Stream size                 : 19.7 KiB (0%)
    Title                       : Español-SRT [CinemaniaHDD]
    Language                    : Spanish
    Default                     : No
    Forced                      : No

    Menu
    00:00:00.000                : 1
    00:11:14.160                : 2
    00:22:18.520                : 3
    00:32:49.480                : 4
    00:44:53.239                : 5
    00:56:25.398                : 6
    01:10:39.797                : 7
    01:22:44.477                : 8

  • Peso: 3.34 GiB

Sinopsis

Descargar Infierno de Hielo (2019) Web-DL 1080p Latino. Marzo de 1945. En un crudo invierno, una brigada de 500 guerrilleros se retira a la meseta de Menina Planina tras ser rodeada por una división de 12.000 soldados alemanes. Protegidos por los bosques, construyen un campamento improvisado, agotados, hambrientos, helados, desnutridos y desanimados. El comandante Franc Sever ‘Franta’ se enfrenta a una tarea imposible: sacar a sus soldados de allí. Tras una sangrienta batalla, consiguen romper el asedio enemigo y luchar por la libertad.

Español Latino AC3 5.1 – Esloveno AC3 5.1

Ficha técnica

Video trailer de la película

Enlaces de descarga

Rip de Bluray

Descargar Infierno de Hielo (2019) Web-DL 1080p Latino




Aportes de DPeliculasHDmega la pass es:dpeliculashdmega.org Aportes de CinemaniaHD la pass es:cinemaniahdd.com
Guardado en : Bélica , Drama

Películas relacionadas

Infierno de Hielo (2019) Web-DL 1080p Latino pelicula full hd, Infierno de Hielo (2019) Web-DL 1080p Latino mega latino, Infierno de Hielo (2019) Web-DL 1080p Latino 4k latino, Infierno de Hielo (2019) Web-DL 1080p Latino pelicula completa, Infierno de Hielo (2019) Web-DL 1080p Latino descargar gratis, descargar Infierno de Hielo (2019) Web-DL 1080p Latino pelicula latino, Infierno de Hielo (2019) Web-DL 1080p Latino 1 link mega, Infierno de Hielo (2019) Web-DL 1080p Latino 1 link google drive, Infierno de Hielo (2019) Web-DL 1080p Latino hd 1080p latino.
Comentarios 0