×

¿Problemas para descargar con Mozilla, EDGE? Deshabilita la opción "Abrir vinculos en una pestaña nueva" tal como lo muestra ésta imagen.

Inferno (2016) 4K REMUX HDR Latino – CMHDD

367 vistas

Información de Inferno (2016) 4K REMUX HDR Latino – CMHDD

Datos de la película

  • Calidad: 4K HDR
  • Audio: Se especifica abajo de la Sinopsis
  • Subtitulos: Español Latino PGS
  • Resolución: 3840x2160p
  • Formato: MKV
  • Codec: H.264
  • Encoder: Dracarys
  • Mediainfo: Clic para Mostrar Datos Ver
  • Format                      : Matroska
    Format version              : Version 4
    File size                   : 42.4 GiB
    Duration                    : 2 h 1 min
    Overall bit rate mode       : Variable
    Overall bit rate            : 49.9 Mb/s
    Movie name                  : Inferno (2016) 4K REMUX HDR Latino - CMHDD
    Encoded date                : UTC 2021-02-01 14:09:08
    Writing application         : mkvmerge v51.0.0 ('I Wish') 64-bit
    Writing library             : libebml v1.4.0 + libmatroska v1.6.2

    Video
    ID                          : 1
    Format                      : HEVC
    Format/Info                 : High Efficiency Video Coding
    Format profile              : Main 10@L5.1@High
    HDR format                  : SMPTE ST 2086, HDR10 compatible
    Codec ID                    : V_MPEGH/ISO/HEVC
    Duration                    : 2 h 0 min
    Bit rate                    : 44.0 Mb/s
    Width                       : 3 840 pixels
    Height                      : 2 160 pixels
    Display aspect ratio        : 16:9
    Frame rate mode             : Variable
    Frame rate                  : 24.161 FPS
    Original frame rate         : 23.976 (24000/1001) FPS
    Color space                 : YUV
    Chroma subsampling          : 4:2:0 (Type 2)
    Bit depth                   : 10 bits
    Bits/(Pixel*Frame)          : 0.220
    Stream size                 : 37.1 GiB (87%)
    Default                     : Yes
    Forced                      : No
    Color range                 : Limited
    Color primaries             : BT.2020
    Transfer characteristics    : PQ
    Matrix coefficients         : BT.2020 non-constant
    Mastering display color pri : Display P3
    Mastering display luminance : min: 0.0050 cd/m2, max: 4000 cd/m2
    Maximum Content Light Level : 10000 cd/m2
    Maximum Frame-Average Light : 3647 cd/m2

    Audio #1
    ID                          : 2
    Format                      : AC-3
    Format/Info                 : Audio Coding 3
    Commercial name             : Dolby Digital
    Codec ID                    : A_AC3
    Duration                    : 2 h 1 min
    Bit rate mode               : Constant
    Bit rate                    : 640 kb/s
    Channel(s)                  : 6 channels
    Channel layout              : L R C LFE Ls Rs
    Sampling rate               : 48.0 kHz
    Frame rate                  : 31.250 FPS (1536 SPF)
    Compression mode            : Lossy
    Stream size                 : 557 MiB (1%)
    Language                    : Spanish
    Service kind                : Complete Main
    Default                     : Yes
    Forced                      : No

    Audio #2
    ID                          : 3
    Format                      : MLP FBA 16-ch
    Format/Info                 : Meridian Lossless Packing FBA with 16-channel presentation
    Commercial name             : Dolby TrueHD with Dolby Atmos
    Codec ID                    : A_TRUEHD
    Duration                    : 2 h 1 min
    Bit rate mode               : Variable
    Bit rate                    : 4 900 kb/s
    Maximum bit rate            : 8 316 kb/s
    Channel(s)                  : 8 channels
    Channel layout              : L R C LFE Ls Rs Lb Rb
    Sampling rate               : 48.0 kHz
    Frame rate                  : 1 200.000 FPS (40 SPF)
    Compression mode            : Lossless
    Delay relative to video     : 26 ms
    Stream size                 : 4.16 GiB (10%)
    Language                    : English
    Default                     : No
    Forced                      : No
    Number of dynamic objects   : 11
    Bed channel count           : 1 channel
    Bed channel configuration   : LFE

    Audio #3
    ID                          : 4
    Format                      : AC-3
    Format/Info                 : Audio Coding 3
    Commercial name             : Dolby Digital
    Codec ID                    : A_AC3
    Duration                    : 2 h 1 min
    Bit rate mode               : Constant
    Bit rate                    : 640 kb/s
    Channel(s)                  : 6 channels
    Channel layout              : L R C LFE Ls Rs
    Sampling rate               : 48.0 kHz
    Frame rate                  : 31.250 FPS (1536 SPF)
    Compression mode            : Lossy
    Delay relative to video     : 26 ms
    Stream size                 : 557 MiB (1%)
    Language                    : English
    Service kind                : Complete Main
    Default                     : No
    Forced                      : No

    Text
    ID                          : 5
    Format                      : PGS
    Muxing mode                 : zlib
    Codec ID                    : S_HDMV/PGS
    Codec ID/Info               : Picture based subtitle format used on BDs/HD-DVDs
    Duration                    : 2 h 0 min
    Bit rate                    : 28.3 kb/s
    Count of elements           : 2804
    Stream size                 : 24.4 MiB (0%)
    Language                    : Spanish
    Default                     : No
    Forced                      : No
     

  • Peso: 42.4 GiB

Sinopsis

Robert Langdon se despierta en una habitación de hospital en Florencia, Italia, sin memoria de lo que ha ocurrido en los últimos días. De repente se encuentra a sí mismo, una vez más, el blanco de una cacería humana importante. Pero con la ayuda de la Dra Sienna Brooks, y su conocimiento de la simbología, Langdon va a tratar de recuperar su libertad, y la pérdida de los recuerdos, todo al mismo tiempo que resuelve los más intrincados enigmas que ha enfrentado.

 

Latino: AC3 5.1  –  Ingles: TrueHD 7.1

Ficha técnica

Video trailer de la película

Enlaces de descarga

Rip de Bluray

Descargar Inferno (2016) 4K REMUX HDR Latino – CMHDD


Aportes de DPeliculasHDmega la pass es:dpeliculashdmega.org Aportes de CinemaniaHD la pass es:cinemaniahdd.com
Guardado en : Drama , Misterio , Suspenso

Películas relacionadas

descargar Inferno (2016) 4K REMUX HDR Latino – CMHDD 4K HDR 1080p gratis, Inferno (2016) 4K REMUX HDR Latino – CMHDD 4K HDR mega 1 link, Inferno (2016) 4K REMUX HDR Latino – CMHDD 4K HDR pelicula completa, descargar Inferno (2016) 4K REMUX HDR Latino – CMHDD 4K HDR gratis en mega.

Inferno (2016) 4K REMUX HDR Latino – CMHDD pelicula full hd, Inferno (2016) 4K REMUX HDR Latino – CMHDD mega latino, Inferno (2016) 4K REMUX HDR Latino – CMHDD 4k latino, Inferno (2016) 4K REMUX HDR Latino – CMHDD pelicula completa, Inferno (2016) 4K REMUX HDR Latino – CMHDD descargar gratis, descargar Inferno (2016) 4K REMUX HDR Latino – CMHDD pelicula latino, Inferno (2016) 4K REMUX HDR Latino – CMHDD 1 link mega, Inferno (2016) 4K REMUX HDR Latino – CMHDD 1 link google drive, Inferno (2016) 4K REMUX HDR Latino – CMHDD hd 1080p latino.
Comentarios 0