Infectados (2020) PLACEBO Full HD 1080p Latino

73 vistas
1 estrella2 estrellas3 estrellas4 estrellas5 estrellas (Ninguna valoración todavía)
Cargando...

Información de Infectados (2020) PLACEBO Full HD 1080p Latino

Datos de la película

  • Calidad: Full 1080p
  • Audio: Español Latino AC3 5.1 WEB-DL - Ingles DTS 5.1 BLURAY
  • Subtitulos: Español Latino PGS - Ingles PGS
  • Resolución: 1920x1080p
  • Formato: MKV
  • Codec: H.264
  • Encoder: Melkor
  • Mediainfo: Clic para Mostrar Datos Ver
  • Infectados (2020) PLACEBO 1080p Latino.mkv
    Format                      : Matroska
    Format version              : Version 4
    File size                   : 6.55 GiB
    Duration                    : 1 h 25 min
    Overall bit rate            : 11.0 Mb/s
    Movie name                  : Songbird (2020) CinemaniaHDD.Net
    Encoded date                : UTC 2021-07-22 14:47:24
    Writing application         : mkvmerge v56.1.0 ('My Friend') 64-bit
    Writing library             : libebml v1.4.2 + libmatroska v1.6.4
    Attachments                 : CINEMANIAHD.png

    Video
    ID                          : 1
    Format                      : AVC
    Format/Info                 : Advanced Video Codec
    Format profile              : High@L4.1
    Format settings             : CABAC / 4 Ref Frames
    Format settings, CABAC      : Yes
    Format settings, Reference  : 4 frames
    Codec ID                    : V_MPEG4/ISO/AVC
    Duration                    : 1 h 25 min
    Bit rate                    : 8 806 kb/s
    Width                       : 1 920 pixels
    Height                      : 1 080 pixels
    Display aspect ratio        : 16:9
    Frame rate mode             : Constant
    Frame rate                  : 23.976 (24000/1001) FPS
    Color space                 : YUV
    Chroma subsampling          : 4:2:0
    Bit depth                   : 8 bits
    Scan type                   : Progressive
    Bits/(Pixel*Frame)          : 0.177
    Stream size                 : 5.25 GiB (80%)
    Title                       : Full HD1080p [CinemaniaHDD]
    Writing library             : x264 core 157 r2935 545de2f
    Encoding settings           : cabac=1 / ref=4 / deblock=1:0:0 / analyse=0x3:0x133 / me=tesa / subme=11 / psy=1 / psy_rd=1.00:0.00 / mixed_ref=1 / me_range=24 / chroma_me=1 / trellis=2 / 8x8dct=1 / cqm=0 / deadzone=21,11 / fast_pskip=0 / chroma_qp_offset=-2 / threads=24 / lookahead_threads=6 / sliced_threads=0 / nr=0 / decimate=1 / interlaced=0 / bluray_compat=0 / constrained_intra=0 / bframes=16 / b_pyramid=2 / b_adapt=2 / b_bias=0 / direct=3 / weightb=1 / open_gop=0 / weightp=2 / keyint=240 / keyint_min=24 / scenecut=40 / intra_refresh=0 / rc_lookahead=60 / rc=crf / mbtree=1 / crf=18.0 / qcomp=0.60 / qpmin=0 / qpmax=69 / qpstep=4 / vbv_maxrate=62500 / vbv_bufsize=78125 / crf_max=0.0 / nal_hrd=none / filler=0 / ip_ratio=1.40 / aq=1:1.00
    Default                     : Yes
    Forced                      : Yes
    Color range                 : Limited
    Color primaries             : BT.709
    Transfer characteristics    : BT.709
    Matrix coefficients         : BT.709

    Audio #1
    ID                          : 2
    Format                      : AC-3
    Format/Info                 : Audio Coding 3
    Commercial name             : Dolby Digital
    Codec ID                    : A_AC3
    Duration                    : 1 h 25 min
    Bit rate mode               : Constant
    Bit rate                    : 640 kb/s
    Channel(s)                  : 6 channels
    Channel layout              : L R C LFE Ls Rs
    Sampling rate               : 48.0 kHz
    Frame rate                  : 31.250 FPS (1536 SPF)
    Compression mode            : Lossy
    Stream size                 : 391 MiB (6%)
    Title                       : Español Latino [CinemaniaHDD]
    Language                    : Spanish
    Service kind                : Complete Main
    Default                     : Yes
    Forced                      : Yes

    Audio #2
    ID                          : 3
    Format                      : DTS
    Format/Info                 : Digital Theater Systems
    Codec ID                    : A_DTS
    Duration                    : 1 h 25 min
    Bit rate mode               : Constant
    Bit rate                    : 1 509 kb/s
    Channel(s)                  : 6 channels
    Channel layout              : C L R Ls Rs LFE
    Sampling rate               : 48.0 kHz
    Frame rate                  : 93.750 FPS (512 SPF)
    Bit depth                   : 24 bits
    Compression mode            : Lossy
    Stream size                 : 922 MiB (14%)
    Title                       : Ingles [CinemaniaHDD]
    Language                    : English
    Default                     : No
    Forced                      : No

    Text #1
    ID                          : 4
    Format                      : PGS
    Muxing mode                 : zlib
    Codec ID                    : S_HDMV/PGS
    Codec ID/Info               : Picture based subtitle format used on BDs/HD-DVDs
    Duration                    : 1 h 24 min
    Bit rate                    : 32.4 kb/s
    Count of elements           : 2061
    Stream size                 : 19.6 MiB (0%)
    Title                       : Español-PGS [CinemaniaHDD]
    Language                    : Spanish
    Default                     : No
    Forced                      : No

    Text #2
    ID                          : 5
    Format                      : PGS
    Muxing mode                 : zlib
    Codec ID                    : S_HDMV/PGS
    Codec ID/Info               : Picture based subtitle format used on BDs/HD-DVDs
    Duration                    : 1 h 24 min
    Bit rate                    : 45.7 kb/s
    Count of elements           : 2601
    Stream size                 : 27.6 MiB (0%)
    Title                       : Ingles-PGS [CinemaniaHDD]
    Language                    : English
    Default                     : No
    Forced                      : No

    Text #3
    ID                          : 6
    Format                      : UTF-8
    Codec ID                    : S_TEXT/UTF8
    Codec ID/Info               : UTF-8 Plain Text
    Duration                    : 1 h 19 min
    Bit rate                    : 2 b/s
    Count of elements           : 59
    Stream size                 : 1.55 KiB (0%)
    Title                       : Forzados-SRT [CinemaniaHDD]
    Language                    : Spanish
    Default                     : Yes
    Forced                      : Yes

    Text #4
    ID                          : 7
    Format                      : UTF-8
    Codec ID                    : S_TEXT/UTF8
    Codec ID/Info               : UTF-8 Plain Text
    Duration                    : 1 h 24 min
    Bit rate                    : 53 b/s
    Count of elements           : 1031
    Stream size                 : 32.9 KiB (0%)
    Title                       : Español-SRT [CinemaniaHDD]
    Language                    : Spanish
    Default                     : No
    Forced                      : No

    Menu
    00:00:00.000                : Chapter 01
    00:03:43.098                : Chapter 02
    00:08:06.778                : Chapter 03
    00:11:07.584                : Chapter 04
    00:14:47.261                : Chapter 05
    00:19:40.054                : Chapter 06
    00:23:52.431                : Chapter 07
    00:29:42.531                : Chapter 08
    00:32:54.890                : Chapter 09
    00:36:23.765                : Chapter 10
    00:39:07.303                : Chapter 11
    00:45:00.031                : Chapter 12
    00:51:13.445                : Chapter 13
    00:55:03.967                : Chapter 14
    00:57:48.674                : Chapter 15
    01:03:43.778                : Chapter 16
    01:09:24.160                : Chapter 17
    01:15:51.338                : Chapter 18
    01:19:21.840                : Chapter 19
    01:21:55.327                : Chapter 20

  • Peso: 6.55 GiB

Sinopsis

Descargar Infectados (2020) PLACEBO Full HD 1080p Latino. Año 2024. Han pasado dos años desde que una pandemia mundial asoló el mundo. El virus COVID23 ha sufrido una nueva y peligrosa mutación con un 50% de mortalidad que obligó a los Gobiernos a ordenar un nuevo confinamiento mundial. Nico (KJ Apa) es un repartidor que ha desarrollado una poco común inmunidad al virus, lo que le permite seguir trabajando. Nico quiere estar junto a su novia Sara (Sofia Carson), pero para ello deberá superar la ley marcial y enfrentarse a gente peligrosa, poderosa y muy desesperada.

Ficha técnica

Video trailer de la película

Enlaces de descarga

Rip de Bluray

Descargar Infectados (2020) PLACEBO Full HD 1080p Latino




Aportes de DPeliculasHDmega la pass es:dpeliculashdmega.org Aportes de CinemaniaHD la pass es:cinemaniahdd.com

Películas relacionadas

Infectados (2020) PLACEBO Full HD 1080p Latino pelicula full hd, Infectados (2020) PLACEBO Full HD 1080p Latino mega latino, Infectados (2020) PLACEBO Full HD 1080p Latino 4k latino, Infectados (2020) PLACEBO Full HD 1080p Latino pelicula completa, Infectados (2020) PLACEBO Full HD 1080p Latino descargar gratis, descargar Infectados (2020) PLACEBO Full HD 1080p Latino pelicula latino, Infectados (2020) PLACEBO Full HD 1080p Latino 1 link mega, Infectados (2020) PLACEBO Full HD 1080p Latino 1 link google drive, Infectados (2020) PLACEBO Full HD 1080p Latino hd 1080p latino.
Comentarios 0