×

¿Problemas para descargar con Mozilla, EDGE? Deshabilita la opción "Abrir vinculos en una pestaña nueva" tal como lo muestra ésta imagen.

Infección (2019) REMUX 1080p Latino

132 vistas

Información de Infección (2019) REMUX 1080p Latino

Datos de la película

  • Calidad: Full 1080p
  • Audio: Español Latino DTS 5.1 BLURAY
  • Subtitulos: No
  • Resolución: 1920x1080p
  • Formato: MKV
  • Codec: H.264
  • Encoder: Melkor
  • Mediainfo: Clic para Mostrar Datos Ver
  • Infeccion (2019) REMUX 1080p Latino.mkv
    Format                      : Matroska
    Format version              : Version 4
    File size                   : 14.9 GiB
    Duration                    : 1 h 37 min
    Overall bit rate mode       : Variable
    Overall bit rate            : 22.0 Mb/s
    Movie name                  : Infeccion (2019) CinemaniaHDD.Net
    Encoded date                : UTC 2022-04-16 15:56:02
    Writing application         : mkvmerge v56.1.0 ('My Friend') 64-bit
    Writing library             : libebml v1.4.2 + libmatroska v1.6.4
    Attachments                 : CINEMANIAHD.png

    Video
    ID                          : 1
    ID in the original source m : 4113 (0x1011)
    Format                      : AVC
    Format/Info                 : Advanced Video Codec
    Format profile              : High@L4.1
    Format settings             : CABAC / 2 Ref Frames
    Format settings, CABAC      : Yes
    Format settings, Reference  : 2 frames
    Codec ID                    : V_MPEG4/ISO/AVC
    Duration                    : 1 h 37 min
    Bit rate mode               : Variable
    Bit rate                    : 16.7 Mb/s
    Maximum bit rate            : 26.5 Mb/s
    Width                       : 1 920 pixels
    Height                      : 1 080 pixels
    Display aspect ratio        : 16:9
    Frame rate mode             : Constant
    Frame rate                  : 24.000 FPS
    Color space                 : YUV
    Chroma subsampling          : 4:2:0
    Bit depth                   : 8 bits
    Scan type                   : Progressive
    Bits/(Pixel*Frame)          : 0.335
    Stream size                 : 11.3 GiB (76%)
    Title                       : REMUX HD1080p [CinemaniaHDD]
    Default                     : Yes
    Forced                      : No
    Original source medium      : Blu-ray

    Audio #1
    ID                          : 2
    ID in the original source m : 4353 (0x1101)
    Format                      : DTS XLL
    Format/Info                 : Digital Theater Systems
    Commercial name             : DTS-HD Master Audio
    Codec ID                    : A_DTS
    Duration                    : 1 h 37 min
    Bit rate mode               : Variable
    Bit rate                    : 3 776 kb/s
    Channel(s)                  : 6 channels
    Channel layout              : C L R Ls Rs LFE
    Sampling rate               : 48.0 kHz
    Frame rate                  : 93.750 FPS (512 SPF)
    Bit depth                   : 24 bits
    Compression mode            : Lossless
    Stream size                 : 2.56 GiB (17%)
    Title                       : Español Latino [CinemaniaHDD]
    Language                    : Spanish
    Default                     : Yes
    Forced                      : No
    Original source medium      : Blu-ray

    Audio #2
    ID                          : 3
    Format                      : DTS
    Format/Info                 : Digital Theater Systems
    Codec ID                    : A_DTS
    Duration                    : 1 h 37 min
    Bit rate mode               : Constant
    Bit rate                    : 1 509 kb/s
    Channel(s)                  : 6 channels
    Channel layout              : C L R Ls Rs LFE
    Sampling rate               : 48.0 kHz
    Frame rate                  : 93.750 FPS (512 SPF)
    Bit depth                   : 24 bits
    Compression mode            : Lossy
    Stream size                 : 1.02 GiB (7%)
    Title                       : Español Latino Core DTS [CinemaniaHDD]
    Language                    : Spanish
    Default                     : No
    Forced                      : No

    Menu
    00:00:00.000                : Chapter 01
    00:06:09.083                : Chapter 02
    00:12:51.291                : Chapter 03
    00:26:20.125                : Chapter 04
    00:37:34.708                : Chapter 05
    00:52:58.708                : Chapter 06
    01:07:14.375                : Chapter 07
    01:17:42.666                : Chapter 08
    01:28:17.333                : Chapter 09
    01:36:48.708                : Chapter 10

  • Peso: 14.9 GiB

Sinopsis

Descargar Infección (2019) REMUX 1080p Latino. Película sobre un brote epidémico de un nuevo virus de la rabia en Venezuela y un padre que intenta salvar a su hijo del contagio. Un hombre ruso está en Caracas bajo la influencia de la droga Krokodil, cuando se infecta con el virus de la rabia y comienza una epidemia de seres agresivos y caníbales. El doctor Adam Vargas está en medio de todo esto, cuando comienza un viaje dentro de una devastada Venezuela para salvar a su hijo de la infección.

Nota: Disponible Solo Para VIP!!!

Ficha técnica

Video trailer de la película

Enlaces de descarga

Rip de Bluray

Descargar Infección (2019) REMUX 1080p Latino


Aportes de DPeliculasHDmega la pass es:dpeliculashdmega.org Aportes de CinemaniaHD la pass es:cinemaniahdd.com
Guardado en : Remux , Suspenso , Terror

Películas relacionadas

Infección (2019) REMUX 1080p Latino pelicula full hd, Infección (2019) REMUX 1080p Latino mega latino, Infección (2019) REMUX 1080p Latino 4k latino, Infección (2019) REMUX 1080p Latino pelicula completa, Infección (2019) REMUX 1080p Latino descargar gratis, descargar Infección (2019) REMUX 1080p Latino pelicula latino, Infección (2019) REMUX 1080p Latino 1 link mega, Infección (2019) REMUX 1080p Latino 1 link google drive, Infección (2019) REMUX 1080p Latino hd 1080p latino.
Comentarios 0