Inexplicable Latinoamérica (2021) Temporada 1 WEB-DL 1080p Latino

30 vistas
1 estrella2 estrellas3 estrellas4 estrellas5 estrellas (2 votos, promedio: 5,00 de 5)
Cargando...

Información de Inexplicable Latinoamérica (2021) Temporada 1 WEB-DL 1080p Latino

Datos de la película

  • Calidad: WEBDL
  • Audio: Español Latino AC3 2.0
  • Subtitulos: No
  • Resolución: 1920x1080
  • Formato: MKV
  • Codec: H.264
  • Encoder: cinemaniahdd
  • Mediainfo: Clic para Mostrar Datos Ver
  • Inexplicable con John Leguizamo T01E01 WEB-DL 1080p Latino [CNMNHDD].mkv
    Format                      : Matroska
    Format version              : Version 4
    File size                   : 708 MiB
    Duration                    : 45 min 5 s
    Overall bit rate mode       : Variable
    Overall bit rate            : 2 196 kb/s
    Movie name                  : Inexplicable con John Leguizamo T01E01 - CinemaniaHDD.Net
    Encoded date                : UTC 2021-06-01 00:17:09
    Writing application         : mkvmerge v46.0.0 ('No Deeper Escape') 64-bit
    Writing library             : libebml v1.3.10 + libmatroska v1.5.2

    Video
    ID                          : 1
    Format                      : AVC
    Format/Info                 : Advanced Video Codec
    Format profile              : Main@L4
    Format settings             : CABAC / 1 Ref Frames
    Format settings, CABAC      : Yes
    Format settings, Reference  : 1 frame
    Codec ID                    : V_MPEG4/ISO/AVC
    Duration                    : 45 min 5 s
    Bit rate mode               : Variable
    Bit rate                    : 2 066 kb/s
    Maximum bit rate            : 8 000 kb/s
    Width                       : 1 920 pixels
    Height                      : 1 080 pixels
    Display aspect ratio        : 16:9
    Frame rate mode             : Constant
    Frame rate                  : 30.000 FPS
    Color space                 : YUV
    Chroma subsampling          : 4:2:0
    Bit depth                   : 8 bits
    Scan type                   : Progressive
    Bits/(Pixel*Frame)          : 0.033
    Stream size                 : 666 MiB (94%)
    Title                       : CinemaniaHDD
    Language                    : Spanish
    Default                     : Yes
    Forced                      : No

    Audio
    ID                          : 2
    Format                      : AAC LC
    Format/Info                 : Advanced Audio Codec Low Complexity
    Codec ID                    : A_AAC-2
    Duration                    : 45 min 5 s
    Bit rate                    : 128 kb/s
    Channel(s)                  : 2 channels
    Channel layout              : L R
    Sampling rate               : 44.1 kHz
    Frame rate                  : 43.066 FPS (1024 SPF)
    Compression mode            : Lossy
    Stream size                 : 41.3 MiB (6%)
    Title                       : Español latino [CinemaniaHDD]
    Language                    : Spanish
    Default                     : Yes
    Forced                      : No

     

  • Peso: 708 MiB Aprox C/U. 4 CAPITULOS DISPONIBLES

Sinopsis

El reconocido actor John Leguizamo presenta esta impresionante serie en la que los mejores científicos y expertos analizan los eventos más misteriosos e inexplicables de Latinoamérica junto a sus protagonistas: desde eventos paranormales, hasta posesiones diabólicas o desapariciones.

4 CAPITULOS DISPONIBLES

Ficha técnica

  • Titulo original: The UnXplained
  • Fecha de lanzamiento: 29-05-2021 (Colombia)
  • Género: Documental, Series
  • Puntuación: 5.0 2 votos
  • Duración:
    0h 43m

Video trailer de la película

Enlaces de descarga

Rip de Bluray

Descargar Inexplicable Latinoamérica (2021) Temporada 1 WEB-DL 1080p Latino




Aportes de DPeliculasHDmega la pass es:dpeliculashdmega.org Aportes de CinemaniaHD la pass es:cinemaniahdd.com
Guardado en : Documental , Series

Películas relacionadas

Inexplicable Latinoamérica (2021) Temporada 1 WEB-DL 1080p Latino pelicula full hd, Inexplicable Latinoamérica (2021) Temporada 1 WEB-DL 1080p Latino mega latino, Inexplicable Latinoamérica (2021) Temporada 1 WEB-DL 1080p Latino 4k latino, Inexplicable Latinoamérica (2021) Temporada 1 WEB-DL 1080p Latino pelicula completa, Inexplicable Latinoamérica (2021) Temporada 1 WEB-DL 1080p Latino descargar gratis, descargar Inexplicable Latinoamérica (2021) Temporada 1 WEB-DL 1080p Latino pelicula latino, Inexplicable Latinoamérica (2021) Temporada 1 WEB-DL 1080p Latino 1 link mega, Inexplicable Latinoamérica (2021) Temporada 1 WEB-DL 1080p Latino 1 link google drive, Inexplicable Latinoamérica (2021) Temporada 1 WEB-DL 1080p Latino hd 1080p latino.
Comentarios 0