×

¿Problemas para descargar con Mozilla, EDGE? Deshabilita la opción "Abrir vinculos en una pestaña nueva" tal como lo muestra ésta imagen.

Indiana Jones y el dial del destino (2023) WEB-DL 4K UHD HDR/DV Latino

288 vistas

Información de Indiana Jones y el dial del destino (2023) WEB-DL 4K UHD HDR/DV Latino

Datos de la película

  • Calidad: WEBDL
  • Audio: Español Latino AC3 5.1 WEB-DL - Ingles AC3 5.1 WEB-DL
  • Subtitulos: Español Latino SRT- FORZADOS SRT
  • Resolución: 3840x1608p
  • Formato: MKV
  • Codec: HEVC
  • Encoder: Melkor
  • Mediainfo: Clic para Mostrar Datos Ver
  • Indiana Jones y el dial del destino (2023) WEB UHD HDR-DV Latino.mkv
    Format                      : Matroska
    Format version              : Version 4
    File size                   : 28.4 GiB
    Duration                    : 2 h 34 min
    Overall bit rate            : 26.3 Mb/s
    Movie name                  : Indiana Jones and the Dial of Destiny (2023) CinemaniaHDD.Net
    Encoded date                : UTC 2023-08-29 07:29:16
    Writing application         : mkvmerge v56.1.0 ('My Friend') 64-bit
    Writing library             : libebml v1.4.2 + libmatroska v1.6.4
    Attachments                 : CINEMANIAHD.png
    Site                        : CinemaniaHDD.Net
    Uploader                    : Melkor

    Video
    ID                          : 1
    Format                      : HEVC
    Format/Info                 : High Efficiency Video Coding
    Format profile              : Main 10@L5@High
    HDR format                  : Dolby Vision, Version 1.0, dvhe.08.06, BL+RPU, HDR10 compatible / SMPTE ST 2094 App 4, Version 1, HDR10+ Profile A compatible
    Codec ID                    : V_MPEGH/ISO/HEVC
    Duration                    : 2 h 34 min
    Bit rate                    : 24.2 Mb/s
    Width                       : 3 840 pixels
    Height                      : 1 608 pixels
    Display aspect ratio        : 2.40:1
    Frame rate mode             : Constant
    Frame rate                  : 23.976 (24000/1001) FPS
    Color space                 : YUV
    Chroma subsampling          : 4:2:0 (Type 2)
    Bit depth                   : 10 bits
    Bits/(Pixel*Frame)          : 0.164
    Stream size                 : 26.2 GiB (92%)
    Title                       : Web 2160p HDR [CinemaniaHDD]
    Language                    : English
    Default                     : Yes
    Forced                      : No
    Color range                 : Limited
    Color primaries             : BT.2020
    Transfer characteristics    : PQ
    Matrix coefficients         : BT.2020 non-constant
    Mastering display color pri : BT.2020
    Mastering display luminance : min: 0.0050 cd/m2, max: 1000 cd/m2
    Maximum Content Light Level : 1522 cd/m2
    Maximum Frame-Average Light : 161 cd/m2

    Audio #1
    ID                          : 2
    Format                      : AC-3
    Format/Info                 : Audio Coding 3
    Commercial name             : Dolby Digital
    Codec ID                    : A_AC3
    Duration                    : 2 h 34 min
    Bit rate mode               : Constant
    Bit rate                    : 640 kb/s
    Channel(s)                  : 6 channels
    Channel layout              : L R C LFE Ls Rs
    Sampling rate               : 48.0 kHz
    Frame rate                  : 31.250 FPS (1536 SPF)
    Compression mode            : Lossy
    Stream size                 : 708 MiB (2%)
    Title                       : Español Latino AC3 [CinemaniaHDD]
    Language                    : Spanish
    Service kind                : Complete Main
    Default                     : Yes
    Forced                      : Yes

    Audio #2
    ID                          : 3
    Format                      : E-AC-3
    Format/Info                 : Enhanced AC-3
    Commercial name             : Dolby Digital Plus
    Codec ID                    : A_EAC3
    Duration                    : 2 h 34 min
    Bit rate mode               : Constant
    Bit rate                    : 640 kb/s
    Channel(s)                  : 8 channels
    Channel layout              : L R C LFE Ls Rs Lb Rb
    Sampling rate               : 48.0 kHz
    Frame rate                  : 31.250 FPS (1536 SPF)
    Compression mode            : Lossy
    Stream size                 : 708 MiB (2%)
    Title                       : Español Latino EAC3 [CinemaniaHDD]
    Language                    : Spanish
    Service kind                : Complete Main
    Default                     : No
    Forced                      : No

    Audio #3
    ID                          : 4
    Format                      : E-AC-3 JOC
    Format/Info                 : Enhanced AC-3 with Joint Object Coding
    Commercial name             : Dolby Digital Plus with Dolby Atmos
    Codec ID                    : A_EAC3
    Duration                    : 2 h 34 min
    Bit rate mode               : Constant
    Bit rate                    : 768 kb/s
    Channel(s)                  : 6 channels
    Channel layout              : L R C LFE Ls Rs
    Sampling rate               : 48.0 kHz
    Frame rate                  : 31.250 FPS (1536 SPF)
    Compression mode            : Lossy
    Stream size                 : 849 MiB (3%)
    Title                       : Ingles [CinemaniaHDD]
    Language                    : English
    Service kind                : Complete Main
    Default                     : No
    Forced                      : No
    Complexity index            : 16
    Number of dynamic objects   : 15
    Bed channel count           : 1 channel
    Bed channel configuration   : LFE

    Text #1
    ID                          : 5
    Format                      : UTF-8
    Codec ID                    : S_TEXT/UTF8
    Codec ID/Info               : UTF-8 Plain Text
    Duration                    : 2 h 17 min
    Bit rate                    : 3 b/s
    Count of elements           : 151
    Stream size                 : 3.21 KiB (0%)
    Title                       : Forzados-SRT [CinemaniaHDD]
    Language                    : Spanish
    Default                     : Yes
    Forced                      : Yes

    Text #2
    ID                          : 6
    Format                      : UTF-8
    Codec ID                    : S_TEXT/UTF8
    Codec ID/Info               : UTF-8 Plain Text
    Duration                    : 2 h 23 min
    Bit rate                    : 39 b/s
    Count of elements           : 1742
    Stream size                 : 41.4 KiB (0%)
    Title                       : Español-SRT [CinemaniaHDD]
    Language                    : Spanish
    Default                     : No
    Forced                      : No

    Text #3
    ID                          : 7
    Format                      : UTF-8
    Codec ID                    : S_TEXT/UTF8
    Codec ID/Info               : UTF-8 Plain Text
    Duration                    : 2 h 22 min
    Bit rate                    : 41 b/s
    Count of elements           : 1739
    Stream size                 : 42.9 KiB (0%)
    Title                       : Ingles-SRT [CinemaniaHDD]
    Language                    : English
    Default                     : No
    Forced                      : No

    Menu
    00:00:00.000                : Chapter 01
    00:05:08.350                : Chapter 02
    00:08:50.030                : Chapter 03
    00:14:47.804                : Chapter 04
    00:21:35.920                : Chapter 05
    00:24:15.372                : Chapter 06
    00:27:06.626                : Chapter 07
    00:33:11.700                : Chapter 08
    00:40:37.979                : Chapter 09
    00:46:27.954                : Chapter 10
    00:51:31.675                : Chapter 11
    00:54:33.773                : Chapter 12
    00:59:38.995                : Chapter 13
    01:02:08.311                : Chapter 14
    01:09:01.558                : Chapter 15
    01:13:37.125                : Chapter 16
    01:20:14.147                : Chapter 17
    01:26:12.172                : Chapter 18
    01:34:29.544                : Chapter 19
    01:36:51.186                : Chapter 20
    01:40:45.170                : Chapter 21
    01:48:09.489                : Chapter 22
    01:55:40.398                : Chapter 23
    02:02:24.803                : Chapter 24
    02:05:18.143                : Chapter 25
    02:12:35.830                : Chapter 26
    02:17:39.884                : Chapter 27
    02:23:27.607                : Chapter 28

  • Peso: 28.4 GiB

Sinopsis

Descargar Indiana Jones y el dial del destino (2023) WEB-DL 4K UHD HDR/DV Latino. El arqueólogo Indiana Jones deberá emprender otra aventura contra el tiempo para intentar recuperar un dial legendario que puede cambiar el curso de la historia. Acompañado por su ahijada, Jones pronto se encuentra enfrentándose a Jürgen Voller, un ex nazi que trabaja para la NASA.

Ficha técnica

Video trailer de la película

Enlaces de descarga

Rip de Bluray

Descargar Indiana Jones y el dial del destino (2023) WEB-DL 4K UHD HDR/DV Latino




Aportes de DPeliculasHDmega la pass es:dpeliculashdmega.org Aportes de CinemaniaHD la pass es:cinemaniahdd.com Aportes recientes:cinemaniahdd.net
Guardado en : 4K HDR , 4K UHD , Action , Adventure , Fantasy

Películas relacionadas

descargar Indiana Jones y el dial del destino (2023) WEB-DL 4K UHD HDR/DV Latino WEBDL 1080p gratis, Indiana Jones y el dial del destino (2023) WEB-DL 4K UHD HDR/DV Latino WEBDL mega 1 link, Indiana Jones y el dial del destino (2023) WEB-DL 4K UHD HDR/DV Latino WEBDL pelicula completa, descargar Indiana Jones y el dial del destino (2023) WEB-DL 4K UHD HDR/DV Latino WEBDL gratis en mega.

Indiana Jones y el dial del destino (2023) WEB-DL 4K UHD HDR/DV Latino pelicula full hd, Indiana Jones y el dial del destino (2023) WEB-DL 4K UHD HDR/DV Latino mega latino, Indiana Jones y el dial del destino (2023) WEB-DL 4K UHD HDR/DV Latino 4k latino, Indiana Jones y el dial del destino (2023) WEB-DL 4K UHD HDR/DV Latino pelicula completa, Indiana Jones y el dial del destino (2023) WEB-DL 4K UHD HDR/DV Latino descargar gratis, descargar Indiana Jones y el dial del destino (2023) WEB-DL 4K UHD HDR/DV Latino pelicula latino, Indiana Jones y el dial del destino (2023) WEB-DL 4K UHD HDR/DV Latino 1 link mega, Indiana Jones y el dial del destino (2023) WEB-DL 4K UHD HDR/DV Latino 1 link google drive, Indiana Jones y el dial del destino (2023) WEB-DL 4K UHD HDR/DV Latino hd 1080p latino.
Comentarios 0